Torrent Search | Torrent Meta Search | Widgets

Clash Of The Titans (2010) BluRay 720p DTS X264 CHD

       
5.26 Gb
found 2 years ago
▲ seeders: 0 ▼ leechers:1
your vote:
real:
fake:
Direct Download
THANK YOU
download torrent
  Direct Downloadsponsored

Clash Of The Titans (2010) BluRay 720p DTS X264 CHD torrent

Information about the torrent Clash Of The Titans (2010) BluRay 720p DTS X264 CHD. Seeders, leechers and torrent status is updated several times per day.

If you want to download the hdrip torrent Clash Of The Titans (2010) BluRay 720p DTS X264 CHD you will need a torrent client.

Torrent Metasearch.

Torrent verified by kat.ph.

tracker
seeders
leechers
↓ torrent client compatible list

↑ hide torrent client compatible list

Help torrentproject.com to stay alive .
Add links of torrentproject.com in your favorite forum, blog, youtube, facebook, twitter etc.
reviews
140
torrent contents

Clash.Of.The.Titans.2010.BluRay.720p.DTS.X264-CHD torrent

Clash.Of.The.Titans.2010.BluRay.720p.DTS.X264-CHD
Clash.Of.The.Titans.2010.BluRay.720p.DTS.X264-CHD.mkv5.01 Gb torrent search
Alternate.Ending.mkv209.76 Mb torrent search
Clash.Of.The.Titans.sample.mkv51.53 Mb torrent search
Clash.Of.The.Titans.2010.BluRay.720p.DTS.X264-CHD.nfo8.6 Kb torrent search

Sample info:
Duration: 01:46:07.57, start: 0.000000, bitrate: 1536 kb/s
Stream #0.0(eng): Video: h264, yuv420p, 1280x534, PAR 1:1 DAR 640:267, 23.98 fps, 24 tbr, 1k tbn, 47.95 tbc
Stream #0.1(eng): Audio: dca, 48000 Hz, 5.1, s16, 1536 kb/s
title	: DTSHD core5.1 1536k
screenshots
Clash Of The Titans torrent screenshot 61326A3E65B628BCDA129E30D728080BB7C2EB81 Clash Of The Titans  torrent screenshot 61326a3e65b628bcda129e30d728080bb7c2eb81 torrent Clash Of The Titans
Clash.Of.The.Titans.2010.BluRay.720p.DTS.X264-CHD images are auto generated please report any inapropriate images
 

related search cloud

 titans  clash  bluray  sample  ending  alternate

Torrent Anonymous Download