Torrent Search | Torrent Meta Search | Widgets

daughter and boyfriend fuck her drunk mom xXx

       
76.98 Mb
found 3 years ago
▲ seeders: 1 ▼ leechers:1
your vote:
real:
fake:
Direct Download
THANK YOU
download torrent
  Direct Downloadsponsored

daughter and boyfriend fuck her drunk mom xXx torrent

Information about the torrent daughter and boyfriend fuck her drunk mom xXx. Seeders, leechers and torrent status is updated everyday.

If you want to download the adult torrent daughter and boyfriend fuck her drunk mom xXx you will need a torrent client.

Torrent Metasearch.

Torrent verified by torlock.com.

tracker
seeders
leechers
↓ torrent client compatible list

↑ hide torrent client compatible list

Help torrentproject.com to stay alive .
Add links of torrentproject.com in your favorite forum, blog, youtube, facebook, twitter etc.
reviews
140
torrent contents

daughter-and-boyfriend-fuck-her-drunk-mom xXx torrent

daughter-and-boyfriend-fuck-her-drunk-mom xXx
daughter-and-boyfriend-fuck-her-drunk-mom xXx.flv76.41 Mb torrent search
daughter-and-boyfriend-fuck-her-drunk-mom xXx (1).jpg364.89 Kb torrent search
daughter-and-boyfriend-fuck-her-drunk-mom xXx (2).jpg214.61 Kb torrent search

Sample info:
Duration: 00:18:15.26, start: 0.084000, bitrate: 577 kb/s
Stream #0.0: Video: h264, yuv420p, 576x432 [PAR 1:1 DAR 4:3], 517 kb/s, 23.98 tbr, 1k tbn, 47.95 tbc
Stream #0.1: Audio: aac, 44100 Hz, stereo, s16, 59 kb/s
screenshots
daughter and boyfriend fuck torrent screenshot 62C77A4548141411625989F3B57CE95DF082C91B daughter and boyfriend fuck  torrent screenshot 62c77a4548141411625989f3b57ce95df082c91b torrent daughter and boyfriend fuck
daughter-and-boyfriend-fuck-her-drunk-mom xXx images are auto generated please report any inapropriate images
 

related search cloud

 drunk  fuck  boyfriend  daughter