Torrent Search | Torrent Meta Search | Widgets

Girls Get Lucky

1.65 Gb
found 10 months ago
▲ seeders: 3 ▼ leechers:0
your vote:
real:
fake:
Direct Download
THANK YOU
download torrent
  Direct Downloadsponsored

Girls Get Lucky torrent

Information about the torrent Girls Get Lucky. A torrent file stores metadata that can be used from a BitTorrent client.

If you want to download the video torrent Girls Get Lucky you will need a torrent client.

Torrent Metasearch.

tracker
seeders
leechers
↓ torrent client compatible list

↑ hide torrent client compatible list

Help torrentproject.com to stay alive .
Add links of torrentproject.com in your favorite forum, blog, youtube, facebook, twitter etc.
reviews
140
torrent contents

Girls Get Lucky torrent

Girls Get Lucky
chi-gglucky.mp41.65 Gb torrent search

Sample info:
Duration: 02:24:12.71, start: 0.000000, bitrate: 1633 kb/s
Stream #0:0	: Video: h264 (High) (avc1 / 0x31637661), yuv420p, 704x396 [SAR 1:1 DAR 16:9], 1498 kb/s, 29.97 fps, 29.97 tbr, 30k tbn, 59.94 tbc
creation_time	: 2013-09-29 10:39:56
Stream #0:1(eng): Audio: aac (mp4a / 0x6134706D), 48000 Hz, stereo, s16, 129 kb/s
creation_time	: 2013-09-29 09:39:05
screenshots
Girls Get Lucky torrent screenshot 640E3BB1129A40243F5A4C6BDDE312A290F83E02 Girls Get Lucky torrent screenshot 640e3bb1129a40243f5a4c6bdde312a290f83e02 torrent Girls Get Lucky
Girls Get Lucky images are auto generated please report any inapropriate images
 

related search cloud

 gglucky  lucky  girls