Torrent Search | Torrent Meta Search | Widgets

Young Teens Video Angels lsm 09 05 02 Kristina & Larisa naughty housekeepers

58.33 Mb
found 3 years ago
▲ seeders: 5 ▼ leechers:4
your vote:
real:
fake:
Direct Download
THANK YOU
download torrent
  Direct Downloadsponsored

Young Teens Video Angels lsm 09 05 02 Kristina & Larisa naughty housekeepers torrent

Information about the torrent Young Teens Video Angels lsm 09 05 02 Kristina & Larisa naughty housekeepers. Seeders, leechers and torrent status is updated everyday.

If you want to download the video torrent Young Teens Video Angels lsm 09 05 02 Kristina & Larisa naughty housekeepers you will need a torrent client.

Torrent Metasearch.

tracker
seeders
leechers
↓ torrent client compatible list

↑ hide torrent client compatible list

Help torrentproject.com to stay alive .
Add links of torrentproject.com in your favorite forum, blog, youtube, facebook, twitter etc.
reviews
140
torrent contents

(Young Teens) Video Angels - lsm-09-05-02 (Kristina & Larisa naughty housekeepers ).avi torrent

(Young Teens) Video Angels - lsm-09-05-02 (Kristina & Larisa naughty housekeepers).avi58.33 Mb torrent search

Sample info:
Duration: 00:05:11.68, start: 0.000000, bitrate: 1569 kb/s
Stream #0.0: Video: mpeg4, yuv420p, 720x576 [PAR 1:1 DAR 5:4], 25.00 tb(r)
Stream #0.1: Audio: mp3, 24000 Hz, stereo, 56 kb/s
 

related search cloud

 larisa  naughty  housekeepers  kristina  angels  teens  video  young

Torrent Anonymous Download