Torrent Search | Torrent Meta Search | Widgets

czech dungeon 2 part 3 704x396 1000kbps

90.49 Mb
found 10 months ago
▲ seeders: 3 ▼ leechers:0
your vote:
real:
fake:
Direct Download
THANK YOU
download torrent
  Direct Downloadsponsored

czech dungeon 2 part 3 704x396 1000kbps torrent

Information about the torrent czech dungeon 2 part 3 704x396 1000kbps. Seeders, leechers and torrent status is updated several times per day.

If you want to download the video torrent czech dungeon 2 part 3 704x396 1000kbps you will need a torrent client.

Torrent Metasearch.

tracker
seeders
leechers
↓ torrent client compatible list

↑ hide torrent client compatible list

Help torrentproject.com to stay alive .
Add links of torrentproject.com in your favorite forum, blog, youtube, facebook, twitter etc.
reviews
140
torrent contents

czech-dungeon-2-part-3-704x396-1000kbps.mp4 torrent

czech-dungeon-2-part-3-704x396-1000kbps.mp490.49 Mb torrent search

Sample info:
Duration: 00:09:27.84, start: 0.000000, bitrate: 1336 kb/s
Stream #0:0	: Video: h264 (High) (avc1 / 0x31637661), yuv420p, 704x396 [SAR 1:1 DAR 16:9], 1203 kb/s, 25 fps, 25 tbr, 25 tbn, 50 tbc
handler_name	: VideoHandler
Stream #0:1	: Audio: aac (mp4a / 0x6134706D), 48000 Hz, stereo, s16, 127 kb/s
handler_name	: SoundHandler
screenshots
czech dungeon 2 part torrent screenshot 6557D1AB56C3B7BE43C97A7DB385C14322215F4A czech dungeon 2 part  torrent screenshot 6557d1ab56c3b7be43c97a7db385c14322215f4a torrent czech dungeon 2 part
czech-dungeon-2-part-3-704x396-1000kbps.mp4 images are auto generated please report any inapropriate images
 

related search cloud

 kbps  part  dungeon  czech