Torrent Search | Torrent Meta Search | Widgets

Angel George Massage Rooms Orgasms (2012)mov

1.32 Gb
found 2 years ago
▲ seeders: 2 ▼ leechers:1
your vote:
real:
fake:
Direct Download
THANK YOU
download torrent
  Direct Downloadsponsored

Angel George Massage Rooms Orgasms (2012)mov torrent

Information about the torrent Angel George Massage Rooms Orgasms (2012)mov. Seeders, leechers and torrent status is updated everyday.

If you want to download the video torrent Angel George Massage Rooms Orgasms (2012)mov you will need a torrent client.

Torrent Metasearch.

tracker
seeders
leechers
↓ torrent client compatible list

↑ hide torrent client compatible list

Help torrentproject.com to stay alive .
Add links of torrentproject.com in your favorite forum, blog, youtube, facebook, twitter etc.
reviews
140
torrent contents

Angel.George.Massage.Rooms.Orgasms.2012.HD_iyutero.com.mov torrent

Angel.George.Massage.Rooms.Orgasms.2012.HD_iyutero.com.mov1.32 Gb torrent search

Sample info:
Duration: 00:30:57.25, start: 0.000000, bitrate: 6111 kb/s
Stream #0.0(eng): Video: h264 (High), yuv420p, 1280x720 [PAR 1:1 DAR 16:9], 6001 kb/s, 24 fps, 24 tbr, 24 tbn, 48 tbc
creation_time	: 2012-10-29 23:27:24
Stream #0.1(eng): Audio: aac, 44100 Hz, stereo, s16, 104 kb/s
creation_time	: 2012-10-29 23:27:24
screenshots
Angel George Massage Rooms torrent screenshot 6590BC9E376338FC4BC06D35C6736892DA935417 Angel George Massage Rooms  torrent screenshot 6590bc9e376338fc4bc06d35c6736892da935417 torrent Angel George Massage Rooms
Angel.George.Massage.Rooms.Orgasms.2012.HD_iyutero.com.mov images are auto generated please report any inapropriate images
 

related search cloud

 orgasms  iyutero  rooms  maage  george  angel