Torrent Search | Torrent Meta Search | Widgets

AKB48 Sayonara Crawl M ON! 720p

325.96 Mb
found 1 year ago
▲ seeders: 1 ▼ leechers:0
your vote:
real:
fake:
Direct Download
THANK YOU
download torrent
  Direct Downloadsponsored

AKB48 Sayonara Crawl M ON! 720p torrent

Information about the torrent AKB48 Sayonara Crawl M ON! 720p. Seeders, leechers and torrent status is updated everyday.

If you want to download the hdrip torrent AKB48 Sayonara Crawl M ON! 720p you will need a torrent client.

Torrent Metasearch.

tracker
seeders
leechers
↓ torrent client compatible list

↑ hide torrent client compatible list

Help torrentproject.com to stay alive .
Add links of torrentproject.com in your favorite forum, blog, youtube, facebook, twitter etc.
reviews
140
torrent contents

AKB48 - Sayonara Crawl (M-ON!) [720p].mp4 torrent

AKB48 - Sayonara Crawl (M-ON!) [720p].mp4325.96 Mb torrent search

Sample info:
Duration: 00:06:15.08, start: 0.000000, bitrate: 7290 kb/s
Stream #0.0	: Video: h264 (High 10), yuv420p10le, 1280x720 [PAR 1:1 DAR 16:9], 7095 kb/s, 23.98 fps, 23.98 tbr, 24k tbn, 47.95 tbc
creation_time	: 2013-05-15 05:29:28
Stream #0.1(jpn): Audio: aac, 48000 Hz, stereo, s16, 191 kb/s
creation_time	: 2013-05-15 02:40:43
screenshots
AKB48 Sayonara Crawl M torrent screenshot 65AF1F5435D0FF3CE25A8C5A9038E038658CAADE AKB48 Sayonara Crawl M  torrent screenshot 65af1f5435d0ff3ce25a8c5a9038e038658caade torrent AKB48 Sayonara Crawl M
AKB48 - Sayonara Crawl (M-ON!) [720p].mp4 images are auto generated please report any inapropriate images
 

related search cloud

 crawl  sayonara