Torrent Search | Torrent Meta Search | Widgets

Unexpectedly cruel casting Bobby Star

474.56 Mb
found 11 months ago
▲ seeders: 3 ▼ leechers:4
your vote:
real:
fake:
Direct Download
THANK YOU
download torrent
  Direct Downloadsponsored

Unexpectedly cruel casting Bobby Star torrent

Information about the torrent Unexpectedly cruel casting Bobby Star. A torrent file stores metadata that can be used from a BitTorrent client.

If you want to download the video torrent Unexpectedly cruel casting Bobby Star you will need a torrent client.

Torrent Metasearch.

tracker
seeders
leechers
↓ torrent client compatible list

↑ hide torrent client compatible list

Help torrentproject.com to stay alive .
Add links of torrentproject.com in your favorite forum, blog, youtube, facebook, twitter etc.
reviews
140
torrent contents

Unexpectedly cruel casting Bobby Star torrent

Unexpectedly cruel casting Bobby Star
Unexpectedly cruel casting Mp4.mp4474.56 Mb torrent search

Sample info:
Duration: 00:34:46.04, start: 0.000000, bitrate: 1908 kb/s
Stream #0:0	: Video: h264 (High) (avc1 / 0x31637661), yuv420p, 1280x720 [SAR 1:1 DAR 16:9], 1774 kb/s, 25 fps, 25 tbr, 25 tbn, 50 tbc
creation_time	: 1970-01-01 00:00:00
handler_name	: VideoHandler
Stream #0:1	: Audio: aac (mp4a / 0x6134706D), 44100 Hz, stereo, s16, 127 kb/s
creation_time	: 1970-01-01 00:00:00
handler_name	: SoundHandler
screenshots
Unexpectedly cruel casting Bobby torrent screenshot 6606699768BA67E063AFA8FF6AB28636AAFF0755 Unexpectedly cruel casting Bobby  torrent screenshot 6606699768ba67e063afa8ff6ab28636aaff0755 torrent Unexpectedly cruel casting Bobby
Unexpectedly cruel casting Bobby Star images are auto generated please report any inapropriate images
 

related search cloud

 unexpectedly  casting  cruel  star  bobby