Torrent Search | Torrent Meta Search | Widgets

Gangland Cream Pie 27

1.43 Gb
found 12 months ago
▲ seeders: 3 ▼ leechers:11
your vote:
real:
fake:
Direct Download
THANK YOU
download torrent
  Direct Downloadsponsored

Gangland Cream Pie 27 torrent

Information about the torrent Gangland Cream Pie 27. Seeders, leechers and torrent status is updated several times per day.

If you want to download the video torrent Gangland Cream Pie 27 you will need a torrent client.

Torrent Metasearch.

tracker
seeders
leechers
↓ torrent client compatible list

↑ hide torrent client compatible list

Help torrentproject.com to stay alive .
Add links of torrentproject.com in your favorite forum, blog, youtube, facebook, twitter etc.
reviews
140
torrent contents

Gangland Cream Pie 27.mp4 torrent

Gangland Cream Pie 27.mp41.43 Gb torrent search

Sample info:
Duration: 02:04:35.86, start: 0.000000, bitrate: 1637 kb/s
Stream #0:0	: Video: h264 (High) (avc1 / 0x31637661), yuv420p, 720x404 [SAR 1:1 DAR 180:101], 1464 kb/s, 29.97 fps, 29.97 tbr, 30k tbn, 59.94 tbc
creation_time	: 2013-09-02 21:07:40
Stream #0:1	: Audio: aac (mp4a / 0x6134706D), 48000 Hz, stereo, s16, 168 kb/s
creation_time	: 2013-09-02 19:47:28
screenshots
Gangland Cream Pie 27 torrent screenshot 6659180A611387EC56690FB7FF641CE51D294974 Gangland Cream Pie 27 torrent screenshot 6659180a611387ec56690fb7ff641ce51d294974 torrent Gangland Cream Pie 27
Gangland Cream Pie 27.mp4 images are auto generated please report any inapropriate images
 

related search cloud

 cream  gangland