Torrent Search | Torrent Meta Search | Widgets

Stepmother 7 Veronica Avluv

323.78 Mb
found 2 years ago
▲ seeders: 2 ▼ leechers:2
your vote:
real:
fake:
Direct Download
THANK YOU
download torrent
  Direct Downloadsponsored

Stepmother 7 Veronica Avluv torrent

Information about the torrent Stepmother 7 Veronica Avluv. Seeders, leechers and torrent status is updated everyday.

If you want to download the video torrent Stepmother 7 Veronica Avluv you will need a torrent client.

Torrent Metasearch.

tracker
seeders
leechers
↓ torrent client compatible list

↑ hide torrent client compatible list

Help torrentproject.com to stay alive .
Add links of torrentproject.com in your favorite forum, blog, youtube, facebook, twitter etc.
reviews
140
torrent contents

Stepmother 7 - Veronica Avluv.avi torrent

Stepmother 7 - Veronica Avluv.avi323.78 Mb torrent search

Sample info:
Duration: 00:31:50.74, start: 0.000000, bitrate: 1421 kb/s
Stream #0.0: Video: mpeg4 (Advanced Simple Profile), yuv420p, 624x352 [PAR 1:1 DAR 39:22], 23.98 tbr, 23.98 tbn, 23.98 tbc
Stream #0.1: Audio: mp3, 48000 Hz, stereo, s16, 118 kb/s
screenshots
Stepmother 7 Veronica Avluv torrent screenshot 671F20745A58EE3F3856C6F0238C3524D2920858 Stepmother 7 Veronica Avluv torrent screenshot 671f20745a58ee3f3856c6f0238c3524d2920858 torrent Stepmother 7 Veronica Avluv
Stepmother 7 - Veronica Avluv.avi images are auto generated please report any inapropriate images
 

related search cloud

 avluv  veronica  stepmother