Torrent Search | Torrent Meta Search | Widgets

Wall Street Money Never Sleeps (2010) DVDRip XviD ViP3R

       
721.55 Mb
found 3 years ago
▲ seeders: 13 ▼ leechers:1
your vote:
real:
fake:
Direct Download
THANK YOU
download torrent
  Direct Downloadsponsored

Wall Street Money Never Sleeps (2010) DVDRip XviD ViP3R torrent

Information about the torrent Wall Street Money Never Sleeps (2010) DVDRip XviD ViP3R. Seeders, leechers and torrent status is updated everyday.

If you want to download the dvdrip torrent Wall Street Money Never Sleeps (2010) DVDRip XviD ViP3R you will need a torrent client.

Torrent Metasearch.

.

tracker
seeders
leechers
↓ torrent client compatible list

↑ hide torrent client compatible list

Help torrentproject.com to stay alive .
Add links of torrentproject.com in your favorite forum, blog, youtube, facebook, twitter etc.
reviews
140
torrent contents

Wall.Street.Money.Never.Sleeps.2010.DVDRip.Xvid-ViP3R torrent

Wall.Street.Money.Never.Sleeps.2010.DVDRip.Xvid-ViP3R
 Sample
sample.avi26.04 Mb torrent search

Wall.Street.Money.Never.Sleeps.2010.DVDRip.Xvid-ViP3R
wall.street.money.never.sleeps-vip3r.avi695.51 Mb torrent search
wall.street.money.never.sleeps-vip3r.nfo1.94 Kb torrent search

Sample info:
Duration: 02:07:33.04, start: 0.000000, bitrate: 762 kb/s
Stream #0.0: Video: mpeg4 (Advanced Simple Profile), yuv420p, 592x256 [PAR 1:1 DAR 37:16], 25 tbr, 25 tbn, 25 tbc
Stream #0.1: Audio: mp3, 44100 Hz, stereo, s16, 100 kb/s
screenshots
Wall Street Money Never torrent screenshot 679C1C7ACD5ECBFD9711A26FB98332268C503024 Wall Street Money Never  torrent screenshot 679c1c7acd5ecbfd9711a26fb98332268c503024 torrent Wall Street Money Never
Wall.Street.Money.Never.Sleeps.2010.DVDRip.Xvid-ViP3R images are auto generated please report any inapropriate images
 

related search cloud

 sleeps  wall  never  money  street  sample  dvdrip  xvid