Torrent Search | Torrent Meta Search | Widgets

Ariella Ferrera My Daughter's Boyfriend 8

531.3 Mb
found 1 year ago
▲ seeders: 1 ▼ leechers:0
your vote:
real:
fake:
Direct Download
THANK YOU
download torrent
  Direct Downloadsponsored

Ariella Ferrera My Daughter's Boyfriend 8 torrent

Information about the torrent Ariella Ferrera My Daughter's Boyfriend 8. Seeders, leechers and torrent status is updated several times per day.

If you want to download the video torrent Ariella Ferrera My Daughter's Boyfriend 8 you will need a torrent client.

Torrent Metasearch.

tracker
seeders
leechers
Help torrentproject.com to stay alive .
Add links of torrentproject.com in your favorite forum, blog, youtube, facebook, twitter etc.
reviews
140
torrent contents

Ariella Ferrera - My Daughter's Boyfriend 8.mp4 torrent

Ariella Ferrera - My Daughter's Boyfriend 8.mp4531.3 Mb torrent search

Sample info:
Duration: 00:33:09.58, start: 0.000000, bitrate: 2240 kb/s
Stream #0.0(eng): Video: h264 (Main), yuv420p, 848x480 [PAR 1:1 DAR 53:30], 2047 kb/s, 23.98 fps, 23.98 tbr, 24k tbn, 47.95 tbc
creation_time	: 2013-05-07 00:16:47
Stream #0.1(eng): Audio: aac, 44100 Hz, stereo, s16, 189 kb/s
creation_time	: 2013-05-07 00:16:47
screenshots
Ariella Ferrera My Daughter's torrent screenshot 69737B988165E371767086633A19787000B913E9 Ariella Ferrera My Daughter's  torrent screenshot 69737b988165e371767086633a19787000b913e9 torrent Ariella Ferrera My Daughter's
Ariella Ferrera - My Daughter's Boyfriend 8.mp4 images are auto generated please report any inapropriate images
 

related search cloud

 boyfriend  daughter  ferrera  ariella