Torrent Search | Torrent Meta Search | Widgets

SAMA 650

1.33 Gb
found 1 year ago
▲ seeders: 6 ▼ leechers:1
your vote:
real:
fake:
Direct Download
THANK YOU
download torrent
  Direct Downloadsponsored

SAMA 650 torrent

Information about the torrent SAMA 650. Seeders, leechers and torrent status is updated several times per day.

If you want to download the video torrent SAMA 650 you will need a torrent client.

Torrent Metasearch.

tracker
seeders
leechers
↓ torrent client compatible list

↑ hide torrent client compatible list

Help torrentproject.com to stay alive .
Add links of torrentproject.com in your favorite forum, blog, youtube, facebook, twitter etc.
reviews
140
torrent contents

SAMA-650.mp4 torrent

SAMA-650.mp41.33 Gb torrent search

Sample info:
Duration: 02:23:06.34, start: 0.000000, bitrate: 1328 kb/s
Stream #0.0(eng): Video: h264 (Constrained Baseline), yuv420p, 720x400 [PAR 1:1 DAR 9:5], 1197 kb/s, 30 fps, 30 tbr, 90k tbn, 60 tbc
creation_time	: 1947-04-12 00:14:09
Stream #0.1(eng): Audio: aac, 44100 Hz, stereo, s16, 127 kb/s
creation_time	: 1947-04-12 00:14:09
screenshots
SAMA 650 torrent screenshot 6AF86D9DD375DECD75F287CC1463A99097C2CEAB SAMA 650 torrent screenshot 6af86d9dd375decd75f287cc1463a99097c2ceab torrent SAMA 650
SAMA-650.mp4 images are auto generated please report any inapropriate images
you may be interested in these torrents seeders leechers size found
im520@SIS001@SAMA 650 1 0 487 Mb 1 year ago

SAMA-650.jpg SAMA-650.rmvb SIS001影视联盟.gif im520@www.sis001.com.url


SAMA 650 1 2 1.33 Gb 1 year ago

SAMA-650.mp4


adawongsex@SexInSex net@SAMA 650 0 1 1.33 Gb 1 year ago

BT原创区招收标准原创专职发帖手,待遇优厚! -SIS压片精英制作小组组员 - SiteRip&am


 

related search cloud

 sama