Torrent Search | Torrent Meta Search | Widgets

ShowStars Aya and Naina Topless

159.3 Mb
found 3 years ago
▲ seeders: 3 ▼ leechers:2
your vote:
real:
fake:
Direct Download
THANK YOU
download torrent
  Direct Downloadsponsored

ShowStars Aya and Naina Topless torrent

Information about the torrent ShowStars Aya and Naina Topless. Seeders, leechers and torrent status is updated everyday.

If you want to download the video torrent ShowStars Aya and Naina Topless you will need a torrent client.

Torrent Metasearch.

tracker
seeders
leechers
↓ torrent client compatible list

↑ hide torrent client compatible list

Help torrentproject.com to stay alive .
Add links of torrentproject.com in your favorite forum, blog, youtube, facebook, twitter etc.
reviews
140
torrent contents

ShowStars - Aya and Naina-Topless.avi torrent

ShowStars - Aya and Naina-Topless.avi159.3 Mb torrent search

Sample info:
Duration: 00:15:50.08, start: 0.000000, bitrate: 1406 kb/s
Stream #0.0: Video: mpeg4, yuv420p, 720x576 [PAR 1:1 DAR 5:4], 25.00 tb(r)
Stream #0.1: Audio: mp3, 44100 Hz, stereo, 160 kb/s
 

related search cloud

 tople  naina  showstars

Torrent Anonymous Download