Torrent Search | Torrent Meta Search | Widgets

Digital Playground Family Matters XXX DVDRip

1.37 Gb
found 3 years ago
▲ seeders: 5 ▼ leechers:5
your vote:
real:
fake:
Direct Download
THANK YOU
download torrent
  Direct Downloadsponsored

Digital Playground Family Matters XXX DVDRip torrent

Information about the torrent Digital Playground Family Matters XXX DVDRip. A torrent file stores metadata that can be used from a BitTorrent client.

If you want to download the adult torrent Digital Playground Family Matters XXX DVDRip you will need a torrent client.

Torrent Metasearch.

tracker
seeders
leechers
↓ torrent client compatible list

↑ hide torrent client compatible list

Help torrentproject.com to stay alive .
Add links of torrentproject.com in your favorite forum, blog, youtube, facebook, twitter etc.
reviews
140
torrent contents

Digital-Playground - Family Matters XXX DVDRip torrent

Digital-Playground - Family Matters XXX DVDRip
Family.Matters CD1.avi698.69 Mb torrent search
Family.Matters CD2.avi700.19 Mb torrent search

Sample info:
Duration: 00:59:22.51, start: 0.000000, bitrate: 1648 kb/s
Stream #0.0: Video: mpeg4, yuv420p, 624x352 [PAR 1:1 DAR 39:22], 23.98 tbr, 23.98 tbn, 23.98 tbc
Stream #0.1: Audio: mp3, 48000 Hz, 2 channels, s16, 113 kb/s
screenshots
Digital Playground Family Matters torrent screenshot 6E07C6F20BF2BA49B3A414D3CE4F6E128CF8D25A Digital Playground Family Matters  torrent screenshot 6e07c6f20bf2ba49b3a414d3ce4f6e128cf8d25a torrent Digital Playground Family Matters
Digital-Playground - Family Matters XXX DVDRip images are auto generated please report any inapropriate images
 

related search cloud

 matters  family  dvdrip  playground  digital

Torrent Anonymous Download