Torrent Search | Torrent Meta Search | Widgets

Prisioneiros da Magia DVDRip DualAudio torrent share

802.17 Mb
found 3 years ago
▲ seeders: 5 ▼ leechers:1
your vote:
real:
fake:
Direct Download
THANK YOU
download torrent
  Direct Downloadsponsored

Prisioneiros da Magia DVDRip DualAudio torrent share torrent

Information about the torrent Prisioneiros da Magia DVDRip DualAudio torrent share. Seeders, leechers and torrent status is updated several times per day.

If you want to download the dvdrip torrent Prisioneiros da Magia DVDRip DualAudio torrent share you will need a torrent client.

Torrent Metasearch.

tracker
seeders
leechers
↓ torrent client compatible list

↑ hide torrent client compatible list

Help torrentproject.com to stay alive .
Add links of torrentproject.com in your favorite forum, blog, youtube, facebook, twitter etc.
reviews
140
torrent contents

Prisioneiros.da.Magia.DVDRip.DualAudio -www.torrent-share.blogspot.com.avi torrent

Prisioneiros.da.Magia.DVDRip.DualAudio -www.torrent-share.blogspot.com.avi802.17 Mb torrent search

Sample info:
Duration: 01:41:50.11, start: 0.000000, bitrate: 1101 kb/s
Stream #0.0: Video: mpeg4, yuv420p, 640x352 [PAR 1:1 DAR 20:11], 23.98 tb(r)
Stream #0.1: Audio: mp3, 48000 Hz, stereo, 128 kb/s
Stream #0.2: Audio: mp3, 48000 Hz, stereo, 128 kb/s
screenshots
Prisioneiros da Magia DVDRip torrent screenshot 6E8B7EAFE46FB8B78D3BDC0546B59DB34FB66C64 Prisioneiros da Magia DVDRip  torrent screenshot 6e8b7eafe46fb8b78d3bdc0546b59db34fb66c64 torrent Prisioneiros da Magia DVDRip
Prisioneiros.da.Magia.DVDRip.DualAudio -www.torrent-share.blogspot.com.avi images are auto generated please report any inapropriate images
 

related search cloud

 share  blogspot  torrent  dualaudio  magia  dvdrip  prisioneiros

Torrent Anonymous Download