Torrent Search | Torrent Meta Search | Widgets

Escobar El Patron Del Mal Capitulo 76 HD 2012 09 19 mkv

583.75 Mb
found 2 years ago
▲ seeders: 8 ▼ leechers:1
your vote:
real:
fake:
Direct Download
THANK YOU
download torrent
  Direct Downloadsponsored

Escobar El Patron Del Mal Capitulo 76 HD 2012 09 19 mkv torrent

Information about the torrent Escobar El Patron Del Mal Capitulo 76 HD 2012 09 19 mkv. Seeders, leechers and torrent status is updated several times per day.

If you want to download the video torrent Escobar El Patron Del Mal Capitulo 76 HD 2012 09 19 mkv you will need a torrent client.

Torrent Metasearch.

tracker
seeders
leechers
↓ torrent client compatible list

↑ hide torrent client compatible list

Help torrentproject.com to stay alive .
Add links of torrentproject.com in your favorite forum, blog, youtube, facebook, twitter etc.
reviews
140
torrent contents

Escobar El Patron Del Mal Capitulo 76 HD (2012-09-19).mkv torrent

Escobar El Patron Del Mal Capitulo 76 HD (2012-09-19).mkv583.75 Mb torrent search

Sample info:
Duration: 00:32:18.86, start: 0.000000, bitrate: N/A
Stream #0.0: Video: h264 (High), yuv420p, 1280x720, PAR 1:1 DAR 16:9, 30 fps, 30 tbr, 1k tbn, 60 tbc (default)
Stream #0.1(ger): Audio: aac, 48000 Hz, stereo, s16 (default)
screenshots
Escobar El Patron Del torrent screenshot 6EB4A01C62B559A394BC69D4A13B99B81BED3C5B Escobar El Patron Del  torrent screenshot 6eb4a01c62b559a394bc69d4a13b99b81bed3c5b torrent Escobar El Patron Del
Escobar El Patron Del Mal Capitulo 76 HD (2012-09-19).mkv images are auto generated please report any inapropriate images
 

related search cloud

 capitulo  patron  escobar