Torrent Search | Torrent Meta Search | Widgets

CZECH STREETS 53

718.68 Mb
found 2 years ago
▲ seeders: 1 ▼ leechers:1
your vote:
real:
fake:
Direct Download
THANK YOU
download torrent
  Direct Downloadsponsored

CZECH STREETS 53 torrent

Information about the torrent CZECH STREETS 53. Seeders, leechers and torrent status is updated several times per day.

If you want to download the video torrent CZECH STREETS 53 you will need a torrent client.

Torrent Metasearch.

No trackers with seeders or leechers have been found, this doesn't mean that the torrent CZECH STREETS 53 is dead
Help torrentproject.com to stay alive .
Add links of torrentproject.com in your favorite forum, blog, youtube, facebook, twitter etc.
reviews
140
torrent contents

CZECH STREETS 53.wmv torrent

CZECH STREETS 53.wmv718.68 Mb torrent search

Sample info:
Duration: 00:29:26.40, start: 3.100000, bitrate: 3413 kb/s
Stream #0.0: Video: wmv2, yuv420p, 720x576, 25 tbr, 1k tbn, 1k tbc
Stream #0.1: Audio: wmav2, 48000 Hz, 2 channels, s16, 128 kb/s
screenshots
CZECH STREETS 53 torrent screenshot 6F5286ADEF032F434E676D49762664CB85F028DA CZECH STREETS 53 torrent screenshot 6f5286adef032f434e676d49762664cb85f028da torrent CZECH STREETS 53
CZECH STREETS 53.wmv images are auto generated please report any inapropriate images
 

related search cloud

 streets  czech