Torrent Search | Torrent Meta Search | Widgets

I Can Do Bad All By Myself The Play 2005

868.59 Mb
found 2 years ago
▲ seeders: 17 ▼ leechers:1
your vote:
real:
fake:
Direct Download
THANK YOU
download torrent
  Direct Downloadsponsored

I Can Do Bad All By Myself The Play 2005 torrent

Information about the torrent I Can Do Bad All By Myself The Play 2005. Seeders, leechers and torrent status is updated several times per day.

If you want to download the video torrent I Can Do Bad All By Myself The Play 2005 you will need a torrent client.

Torrent Metasearch.

tracker
seeders
leechers
↓ torrent client compatible list

↑ hide torrent client compatible list

Help torrentproject.com to stay alive .
Add links of torrentproject.com in your favorite forum, blog, youtube, facebook, twitter etc.
reviews
140
torrent contents

I.Can.Do.Bad.All.By.Myself.(The.Play).2005 torrent

I.Can.Do.Bad.All.By.Myself.(The.Play).2005
I.Can.Do.Bad.All.By.Myself.(The.Play).2005.mp4868.59 Mb torrent search

Sample info:
Duration: 02:21:41.32, start: 0.000000, bitrate: 857 kb/s
Stream #0:0	: Video: h264 (Main) (avc1 / 0x31637661), yuv420p, 720x548, 535 kb/s, 29.97 fps, 29.97 tbr, 90k tbn, 59.94 tbc
creation_time	: 2012-11-10 21:26:32
Stream #0:1	: Audio: mp3 (mp4a / 0x6134706D), 48000 Hz, stereo, s16, 320 kb/s
creation_time	: 2012-11-10 21:26:32
screenshots
I Can Do Bad torrent screenshot 6F5979CFB1AB5A23CFFCED92B29625AEE35161B8 I Can Do Bad  torrent screenshot 6f5979cfb1ab5a23cffced92b29625aee35161b8 torrent I Can Do Bad
I.Can.Do.Bad.All.By.Myself.(The.Play).2005 images are auto generated please report any inapropriate images
 

related search cloud

 play  myself