Torrent Search | Torrent Meta Search | Widgets

WowGirls Behind The Bathroom Door Cindy aka Sindy Vega 1080p

1.05 Gb
found 1 year ago
▲ seeders: 4 ▼ leechers:2
your vote:
real:
fake:
Direct Download
THANK YOU
download torrent
  Direct Downloadsponsored

WowGirls Behind The Bathroom Door Cindy aka Sindy Vega 1080p torrent

Information about the torrent WowGirls Behind The Bathroom Door Cindy aka Sindy Vega 1080p. Seeders, leechers and torrent status is updated everyday.

If you want to download the hdrip torrent WowGirls Behind The Bathroom Door Cindy aka Sindy Vega 1080p you will need a torrent client.

Torrent Metasearch.

tracker
seeders
leechers
↓ torrent client compatible list

↑ hide torrent client compatible list

Help torrentproject.com to stay alive .
Add links of torrentproject.com in your favorite forum, blog, youtube, facebook, twitter etc.
reviews
140
torrent contents

WowGirls - Behind The Bathroom Door - Cindy aka Sindy Vega [1080p].mp4 torrent

WowGirls - Behind The Bathroom Door - Cindy aka Sindy Vega [1080p].mp41.05 Gb torrent search

Sample info:
Duration: 00:25:55.75, start: 0.000000, bitrate: 5774 kb/s
Stream #0.0	: Video: h264 (High), yuv420p, 1920x1080, 5669 kb/s, 29.97 fps, 29.97 tbr, 30k tbn, 59.94 tbc
creation_time	: 1970-01-01 00:00:00
Stream #0.1	: Audio: aac, 44100 Hz, stereo, s16, 99 kb/s
creation_time	: 1970-01-01 00:00:00
screenshots
WowGirls Behind The Bathroom torrent screenshot 6F9A8B9DD880D6B720946AD7CA2656D9F8ED5D94 WowGirls Behind The Bathroom  torrent screenshot 6f9a8b9dd880d6b720946ad7ca2656d9f8ed5d94 torrent WowGirls Behind The Bathroom
WowGirls - Behind The Bathroom Door - Cindy aka Sindy Vega [1080p].mp4 images are auto generated please report any inapropriate images
 

related search cloud

 sindy  vega  cindy  door  behind  bathroom  wowgirls