Torrent Search | Torrent Meta Search | Widgets

Merlin S04

       
4.44 Gb
found 2 years ago
▲ seeders: 20 ▼ leechers:12
your vote:
real:
fake:
Direct Download
THANK YOU
download torrent
  Direct Downloadsponsored

Merlin S04 torrent

Information about the torrent Merlin S04. Seeders, leechers and torrent status is updated several times per day.

If you want to download the tv torrent Merlin S04 you will need a torrent client.

Torrent Metasearch.

.

tracker
seeders
leechers
↓ torrent client compatible list

↑ hide torrent client compatible list

Help torrentproject.com to stay alive .
Add links of torrentproject.com in your favorite forum, blog, youtube, facebook, twitter etc.
reviews
140
torrent contents

Merlin S04 torrent

Merlin S04
Merlin.S04E09.hdtv.xvid-river.avi351.46 Mb torrent search
Merlin.S04E03.hdtv_xvid-fov.avi350.5 Mb torrent search
Merlin.S04E02.hdtv.xvid-fov.avi350.41 Mb torrent search
Merlin.S04E10.hdtv.xvid-fov.avi350.33 Mb torrent search
Merlin.S04E05.hdtv.xvid-fov.avi350.17 Mb torrent search
Merlin.S04E11.hdtv.xvid-fov.avi350.1 Mb torrent search
Merlin.S04E08.hdtv.xvid-fov.avi349.94 Mb torrent search
Merlin.S04E13.hdtv.xvid-tla.avi349.68 Mb torrent search
Merlin.S04E06.hdtv.xvid-river.avi349.43 Mb torrent search
Merlin.S04E12.hdtv.xvid-river.avi349.24 Mb torrent search
Merlin.S04E07.hdtv.xvid-river.avi348.67 Mb torrent search
Merlin.S04E01.hdtv.xvid-river.avi348.32 Mb torrent search
Merlin.S04E04.hdtv.xvid-river.avi348.14 Mb torrent search

Sample info:
Duration: 00:44:12.09, start: 0.000000, bitrate: 1111 kb/s
Stream #0.0: Video: mpeg4 (Advanced Simple Profile), yuv420p, 624x352 [PAR 1:1 DAR 39:22], 25 tbr, 25 tbn, 25 tbc
Stream #0.1: Audio: mp3, 48000 Hz, stereo, s16, 129 kb/s
screenshots
Merlin S04 torrent screenshot 6FF089E8F31F6C575C75D11E561879C95931DB21 Merlin S04 torrent screenshot 6ff089e8f31f6c575c75d11e561879c95931db21 torrent Merlin S04
Merlin S04 images are auto generated please report any inapropriate images
 

related search cloud

 merlin  xvid  hdtv  river

Torrent Anonymous Download