Torrent Search | Torrent Meta Search | Widgets

Ben Hur (1959)

       
700.06 Mb
found 3 years ago
▲ seeders: 48 ▼ leechers:4
your vote:
real:
fake:
Direct Download
THANK YOU
download torrent
  Direct Downloadsponsored

Ben Hur (1959) torrent

Information about the torrent Ben Hur (1959). Seeders, leechers and torrent status is updated several times per day.

If you want to download the hdrip torrent Ben Hur (1959) you will need a torrent client.

Torrent Metasearch.

Torrent verified by torlock.com.

tracker
seeders
leechers
↓ torrent client compatible list

↑ hide torrent client compatible list

Help torrentproject.com to stay alive .
Add links of torrentproject.com in your favorite forum, blog, youtube, facebook, twitter etc.
reviews
140
torrent contents

Ben Hur (1959) torrent

Ben Hur (1959)
Ben.Hur.1959_HDrip.x264.YIFY.mkv700.06 Mb torrent search
AhaShare.com.txt59 bytes torrent search
Torrent downloaded from Demonoid.com - Copy.txt47 bytes torrent search

Sample info:
Duration: 03:31:40.37, start: 0.000000, bitrate: N/A
Stream #0.0(eng): Video: h264 (High), yuv420p, 640x240, PAR 15:17 DAR 40:17, 23.98 fps, 23.98 tbr, 1k tbn, 47.95 tbc (default)
title	: Ben Hur - YIFY
Stream #0.1(eng): Audio: aac, 48000 Hz, stereo, s16 (default)
title	: Ben Hur - YIFY
Stream #0.2(eng): Subtitle: [0][0][0][0] / 0x0000
title	: Ben Hur - YIFY
screenshots
Ben Hur 1959 torrent screenshot 70793F9D3A0193A7067F60C6EF4B33BC52E56269 Ben Hur 1959  torrent screenshot 70793f9d3a0193a7067f60c6ef4b33bc52e56269 torrent Ben Hur 1959
Ben Hur (1959) images are auto generated please report any inapropriate images
 

related search cloud

 demonoid  copy  downloaded  torrent  yify  ahashare  hdrip