Torrent Search | Torrent Meta Search | Widgets

Legs Up Hose Down April O'Neil

414.29 Mb
found 1 year ago
▲ seeders: 4 ▼ leechers:1
your vote:
real:
fake:
Direct Download
THANK YOU
download torrent
  Direct Downloadsponsored

Legs Up Hose Down April O'Neil torrent

Information about the torrent Legs Up Hose Down April O'Neil. Seeders, leechers and torrent status is updated several times per day.

If you want to download the video torrent Legs Up Hose Down April O'Neil you will need a torrent client.

Torrent Metasearch.

tracker
seeders
leechers
↓ torrent client compatible list

↑ hide torrent client compatible list

Help torrentproject.com to stay alive .
Add links of torrentproject.com in your favorite forum, blog, youtube, facebook, twitter etc.
reviews
140
torrent contents

Legs Up Hose Down-April O'Neil.avi torrent

Legs Up Hose Down-April O'Neil.avi414.29 Mb torrent search

Sample info:
Duration: 00:43:27.67, start: 0.000000, bitrate: 1332 kb/s
Stream #0.0: Video: mpeg4 (Advanced Simple Profile), yuv420p, 624x352 [PAR 1:1 DAR 39:22], 29.97 tbr, 29.97 tbn, 29.98 tbc
Stream #0.1: Audio: ac3, 48000 Hz, stereo, s16, 192 kb/s
screenshots
Legs Up Hose Down torrent screenshot 70D2F38769A78BBE263BD2E4C7F0B28238FF5949 Legs Up Hose Down  torrent screenshot 70d2f38769a78bbe263bd2e4c7f0b28238ff5949 torrent Legs Up Hose Down
Legs Up Hose Down-April O'Neil.avi images are auto generated please report any inapropriate images
 

related search cloud

 neil  april  down  hose  legs

Torrent Anonymous Download