Torrent Search | Torrent Meta Search | Widgets

I Have A Wife Heather Summers

       
299.66 Mb
found 4 years ago
▲ seeders: 1 ▼ leechers:2
your vote:
real:
fake:
Direct Download
THANK YOU
download torrent
  Direct Downloadsponsored

I Have A Wife Heather Summers torrent

Information about the torrent I Have A Wife Heather Summers. Seeders, leechers and torrent status is updated several times per day.

If you want to download the video torrent I Have A Wife Heather Summers you will need a torrent client.

Torrent Metasearch.

Torrent verified by kat.ph.

tracker
seeders
leechers
↓ torrent client compatible list

↑ hide torrent client compatible list

Help torrentproject.com to stay alive .
Add links of torrentproject.com in your favorite forum, blog, youtube, facebook, twitter etc.
reviews
140
torrent contents

I Have A Wife - Heather Summers torrent

I Have A Wife - Heather Summers
I Have A Wife - Heather Summers.wmv299.66 Mb torrent search

Sample info:
Duration: 00:19:53.85, start: 5.000000, bitrate: 2105 kb/s
Stream #0.0(eng): Audio: wmav2, 48000 Hz, 2 channels, s16, 96 kb/s
Stream #0.1(eng): Video: wmv3, yuv420p, 850x480, 2000 kb/s, 29.97 tbr, 1k tbn, 1k tbc
screenshots
I Have A Wife torrent screenshot 71887477135ABBF8368DF765323C175CA297F915 I Have A Wife  torrent screenshot 71887477135abbf8368df765323c175ca297f915 torrent I Have A Wife
I Have A Wife - Heather Summers images are auto generated please report any inapropriate images
 

related search cloud

 summers  heather  wife  have