Torrent Search | Torrent Meta Search | Widgets

Bang a Midget Mini Mya

139.17 Mb
found 3 years ago
▲ seeders: 2 ▼ leechers:2
your vote:
real:
fake:
Direct Download
THANK YOU
download torrent
  Direct Downloadsponsored

Bang a Midget Mini Mya torrent

Information about the torrent Bang a Midget Mini Mya. Seeders, leechers and torrent status is updated everyday.

If you want to download the video torrent Bang a Midget Mini Mya you will need a torrent client.

Torrent Metasearch.

tracker
seeders
leechers
↓ torrent client compatible list

↑ hide torrent client compatible list

Help torrentproject.com to stay alive .
Add links of torrentproject.com in your favorite forum, blog, youtube, facebook, twitter etc.
reviews
140
torrent contents

Bang a Midget -Mini Mya.avi torrent

Bang a Midget -Mini Mya.avi139.17 Mb torrent search

Sample info:
Duration: 00:15:03.08, start: 0.000000, bitrate: 1292 kb/s
Stream #0.0: Video: mpeg4, yuv420p, 640x360 [PAR 1:1 DAR 16:9], 25 tbr, 25 tbn, 25 tbc
Stream #0.1: Audio: mp3, 44100 Hz, 2 channels, s16, 128 kb/s
screenshots
Bang a Midget Mini torrent screenshot 721A14E44E847935360C8A0CA4F8D191577EC5CC Bang a Midget Mini  torrent screenshot 721a14e44e847935360c8a0ca4f8d191577ec5cc torrent Bang a Midget Mini
Bang a Midget -Mini Mya.avi images are auto generated please report any inapropriate images
 

related search cloud

 mini  midget  bang