Torrent Search | Torrent Meta Search | Widgets

Extreme BDSM Deadly whip

49.85 Mb
found 3 years ago
▲ seeders: 1 ▼ leechers:2
your vote:
real:
fake:
Direct Download
THANK YOU
download torrent
  Direct Downloadsponsored

Extreme BDSM Deadly whip torrent

Information about the torrent Extreme BDSM Deadly whip. Seeders, leechers and torrent status is updated several times per day.

If you want to download the video torrent Extreme BDSM Deadly whip you will need a torrent client.

Torrent Metasearch.

tracker
seeders
leechers
↓ torrent client compatible list

↑ hide torrent client compatible list

Help torrentproject.com to stay alive .
Add links of torrentproject.com in your favorite forum, blog, youtube, facebook, twitter etc.
reviews
140
torrent contents

Extreme BDSM - Deadly whip [www.imageblues.com].avi torrent

Extreme BDSM - Deadly whip [www.imageblues.com].avi49.85 Mb torrent search

Sample info:
Duration: 00:12:37.00, start: 0.000000, bitrate: 552 kb/s
Stream #0.0: Video: mpeg4, yuv420p, 384x216 [PAR 1:1 DAR 16:9], 14.99 fps, 14.99 tbr, 14.99 tbn, 15k tbc
Stream #0.1: Audio: mp3, 44100 Hz, 1 channels, s16, 84 kb/s
screenshots
Extreme BDSM Deadly whip torrent screenshot 72FC0CF539502758F06B5436163ED7557CCDCA64 Extreme BDSM Deadly whip torrent screenshot 72fc0cf539502758f06b5436163ed7557ccdca64 torrent Extreme BDSM Deadly whip
Extreme BDSM - Deadly whip [www.imageblues.com].avi images are auto generated please report any inapropriate images
 

related search cloud

 imageblues  whip  deadly  bdsm  extreme

Torrent Anonymous Download