Torrent Search | Torrent Meta Search | Widgets

Color Climax Bestsellers 247

500.9 Mb
found 3 years ago
▲ seeders: 4 ▼ leechers:1
your vote:
real:
fake:
Direct Download
THANK YOU
download torrent
  Direct Downloadsponsored

Color Climax Bestsellers 247 torrent

Information about the torrent Color Climax Bestsellers 247. Seeders, leechers and torrent status is updated everyday.

If you want to download the video torrent Color Climax Bestsellers 247 you will need a torrent client.

Torrent Metasearch.

tracker
seeders
leechers
↓ torrent client compatible list

↑ hide torrent client compatible list

Help torrentproject.com to stay alive .
Add links of torrentproject.com in your favorite forum, blog, youtube, facebook, twitter etc.
reviews
140
torrent contents

Color Climax - Bestsellers 247 torrent

Color Climax - Bestsellers 247
back.jpg85.48 Kb torrent search
cover.jpg65.76 Kb torrent search
screen.jpg160.99 Kb torrent search
★天涯海阁原创精英组★.txt2.35 Kb torrent search
坟前点香@天涯海阁@Color Climax - Bestsellers 247.avi499.9 Mb torrent search

Sample info:
Duration: 00:53:04.76, start: 0.000000, bitrate: 1316 kb/s
Stream #0.0: Video: mpeg4, yuv420p, 512x384 [PAR 1:1 DAR 4:3], 25.00 tb(r)
Stream #0.1: Audio: mp3, 48000 Hz, stereo, 128 kb/s
screenshots
Color Climax Bestsellers 247 torrent screenshot 73EAF89EC38E0AD2FF60D2A45398B42D11A9056A Color Climax Bestsellers 247 torrent screenshot 73eaf89ec38e0ad2ff60d2a45398b42d11a9056a torrent Color Climax Bestsellers 247
Color Climax - Bestsellers 247 images are auto generated please report any inapropriate images
 

related search cloud

 color  bestsellers  climax  screen  back  cover