Torrent Search | Torrent Meta Search | Widgets

Indian bhabhi fucked in hotel leaked video

100.87 Mb
found 6 months ago
▲ seeders: 2 ▼ leechers:1
your vote:
real:
fake:
Direct Download
THANK YOU
download torrent
  Direct Downloadsponsored

Indian bhabhi fucked in hotel leaked video torrent

Information about the torrent Indian bhabhi fucked in hotel leaked video. Seeders, leechers and torrent status is updated several times per day.

If you want to download the video torrent Indian bhabhi fucked in hotel leaked video you will need a torrent client.

Torrent Metasearch.

tracker
seeders
leechers
↓ torrent client compatible list

↑ hide torrent client compatible list

Help torrentproject.com to stay alive .
Add links of torrentproject.com in your favorite forum, blog, youtube, facebook, twitter etc.
reviews
140
torrent contents

Indian bhabhi fucked in hotel leaked video torrent

Indian bhabhi fucked in hotel leaked video
Indian bhabhi fucked in hotel leaked video.avi100.87 Mb torrent search

Sample info:
Duration: 00:26:06.20, start: 0.000000, bitrate: 540 kb/s
Stream #0:0: Video: h264 (Main) (H264 / 0x34363248), yuv420p, 320x256 [SAR 1:1 DAR 5:4], 15 fps, 15 tbr, 15 tbn, 30 tbc
Stream #0:1: Audio: mp3 (U[0][0][0] / 0x0055), 44100 Hz, stereo, s16, 256 kb/s
screenshots
Indian bhabhi fucked in torrent screenshot 7435DCB8783725FFA6641699090F767DF5FA1AE4 Indian bhabhi fucked in  torrent screenshot 7435dcb8783725ffa6641699090f767df5fa1ae4 torrent Indian bhabhi fucked in
Indian bhabhi fucked in hotel leaked video images are auto generated please report any inapropriate images
 

related search cloud

 leaked  video  hotel  fucked  bhabhi  indian

Torrent Anonymous Download