Torrent Search | Torrent Meta Search | Widgets

RipHerUp 13 02 04 Anna Porter XXX 1080p WMV SEXORS rarbg

1.25 Gb
found 1 year ago
▲ seeders: 2 ▼ leechers:1
your vote:
real:
fake:
Direct Download
THANK YOU
download torrent
  Direct Downloadsponsored

RipHerUp 13 02 04 Anna Porter XXX 1080p WMV SEXORS rarbg torrent

Information about the torrent RipHerUp 13 02 04 Anna Porter XXX 1080p WMV SEXORS rarbg. Seeders, leechers and torrent status is updated everyday.

If you want to download the adult torrent RipHerUp 13 02 04 Anna Porter XXX 1080p WMV SEXORS rarbg you will need a torrent client.

Torrent Metasearch.

tracker
seeders
leechers
↓ torrent client compatible list

↑ hide torrent client compatible list

Help torrentproject.com to stay alive .
Add links of torrentproject.com in your favorite forum, blog, youtube, facebook, twitter etc.
reviews
140
torrent contents

RipHerUp.13.02.04.Anna.Porter.XXX.1080p.WMV-SEXORS[rarbg] torrent

RipHerUp.13.02.04.Anna.Porter.XXX.1080p.WMV-SEXORS[rarbg]
RARBG.com.txt34 bytes torrent search
sexo-rhu-anna-130204.wmv1.25 Gb torrent search

Sample info:
Duration: 00:21:19.49, start: 0.000000, bitrate: 8408 kb/s
Stream #0.0: Audio: wmapro, 44100 Hz, stereo, flt, 440 kb/s
Stream #0.1: Video: wmv3 (Main), yuv420p, 1920x1080, 8000 kb/s, PAR 1:1 DAR 16:9, 25 tbr, 1k tbn, 1k tbc
screenshots
RipHerUp 13 02 04 torrent screenshot 7469C376DECAD65A1316D31FB687A89B4D3A3A91 RipHerUp 13 02 04  torrent screenshot 7469c376decad65a1316d31fb687a89b4d3a3a91 torrent RipHerUp 13 02 04
RipHerUp.13.02.04.Anna.Porter.XXX.1080p.WMV-SEXORS[rarbg] images are auto generated please report any inapropriate images
you may be interested in these torrents seeders leechers size found
RipHerUp 13 02 04 Anna Porter XXX 1080p 1 0 1.25 Gb 1 year ago

RARBG.com.txt sexo-rhu-anna-130204.wmv


RipHerUp 13 02 04 Anna Porter XXX 1080p 0 3 1.25 Gb 1 year ago

RARBG.com.txt sexo-rhu-anna-130204.wmv


 

related search cloud

 rarbg  anna  sexo  porter  ripherup  sexors