Torrent Search | Torrent Meta Search | Widgets

Hannas House

1.37 Gb
found 1 year ago
▲ seeders: 1 ▼ leechers:3
your vote:
real:
fake:
Direct Download
THANK YOU
download torrent
  Direct Downloadsponsored

Hannas House torrent

Information about the torrent Hannas House. Seeders, leechers and torrent status is updated everyday.

If you want to download the video torrent Hannas House you will need a torrent client.

Torrent Metasearch.

tracker
seeders
leechers
↓ torrent client compatible list

↑ hide torrent client compatible list

Help torrentproject.com to stay alive .
Add links of torrentproject.com in your favorite forum, blog, youtube, facebook, twitter etc.
reviews
140
torrent contents

Hannas House torrent

Hannas House
RARBG.com.txt34 bytes torrent search
Hanna's Houseb.avi698.68 Mb torrent search
Hanna's Housea.avi699.71 Mb torrent search

Sample info:
Duration: 01:27:19.30, start: 0.000000, bitrate: 1120 kb/s
Stream #0:0: Video: mpeg4 (Advanced Simple Profile) (XVID / 0x44495658), yuv420p, 576x320 [SAR 1:1 DAR 9:5], 29.97 tbr, 29.97 tbn, 29.98 tbc
Stream #0:1: Audio: mp3 (U[0][0][0] / 0x0055), 48000 Hz, stereo, s16, 115 kb/s
screenshots
Hannas House torrent screenshot 749EFB5ACE4395447A5ED291B4D088DF89A09FA1 Hannas House torrent screenshot 749efb5ace4395447a5ed291b4d088df89a09fa1 torrent Hannas House
Hannas House images are auto generated please report any inapropriate images
 

related search cloud

 hanna  houseb  housea  rarbg  house  hannas