Torrent Search | Torrent Meta Search | Widgets

gomk

1.47 Gb
found 1 year ago
▲ seeders: 3 ▼ leechers:1
your vote:
real:
fake:
Direct Download
THANK YOU
download torrent
  Direct Downloadsponsored

gomk torrent

Information about the torrent gomk. Seeders, leechers and torrent status is updated everyday.

If you want to download the video torrent gomk you will need a torrent client.

Torrent Metasearch.

tracker
seeders
leechers
↓ torrent client compatible list

↑ hide torrent client compatible list

Help torrentproject.com to stay alive .
Add links of torrentproject.com in your favorite forum, blog, youtube, facebook, twitter etc.
reviews
140
torrent contents

gomk torrent

gomk
GOMK-30_01.mkv545.67 Mb torrent search
GOMK-30_02.mkv733.15 Mb torrent search
GOMK-30_03.mkv229.63 Mb torrent search

Sample info:
Duration: 00:46:33.72, start: 0.000000, bitrate: N/A
Stream #0.0: Video: h264 (Constrained Baseline), yuv420p, 720x480, PAR 1:1 DAR 3:2, 29.97 fps, 29.97 tbr, 1k tbn, 58 tbc (default)
Stream #0.1: Audio: aac, 44100 Hz, stereo, s16 (default)
screenshots
gomk torrent screenshot 7545E6A48809ABA3FFBE3E28B0631FB9A14AD68A gomk torrent screenshot 7545e6a48809aba3ffbe3e28b0631fb9a14ad68a torrent gomk
gomk images are auto generated please report any inapropriate images
 

related search cloud

 gomk