Torrent Search | Torrent Meta Search | Widgets

Britney Beth AKA Bibi Jones Pack

       
8.27 Gb
found 3 years ago
▲ seeders: 1 ▼ leechers:4
your vote:
real:
fake:
Direct Download
THANK YOU
download torrent
  Direct Downloadsponsored

Britney Beth AKA Bibi Jones Pack torrent

Information about the torrent Britney Beth AKA Bibi Jones Pack. Seeders, leechers and torrent status is updated several times per day.

If you want to download the video torrent Britney Beth AKA Bibi Jones Pack you will need a torrent client.

Torrent Metasearch.

Torrent verified by torlock.com.

tracker
seeders
leechers
↓ torrent client compatible list

↑ hide torrent client compatible list

Help torrentproject.com to stay alive .
Add links of torrentproject.com in your favorite forum, blog, youtube, facebook, twitter etc.
reviews
140
torrent contents

Britney Beth AKA Bibi Jones Pack | D 3 V i L | (www.MastiTorrents.Com) torrent

Britney Beth AKA Bibi Jones Pack | D 3 V i L | (www.MastiTorrents.Com)
begging_for_britney_big.wmv411.14 Mb torrent search
Babysisters2-clip2 (with Bibi Jones, Jesse Jane, Kayden Kross & Stoya).mp4742.2 Mb torrent search
18yo_britneybeth-wmvFullHigh-1.wmv506.59 Mb torrent search
The Crib-clip1.avi115.39 Mb torrent search
Cutie Pies 2 - Britney Beth.avi177.47 Mb torrent search
Hustlers Amatuer Action - Britney Beth.avi134.96 Mb torrent search
Babysisters2-clip1.avi123.14 Mb torrent search
iktg_britney_beth_1280_720.wmv2.15 Gb torrent search
NorthPole 82 - Britney Beth.avi200.26 Mb torrent search
www.mastitorrents.com.txt538 bytes torrent search
Catch Us On Facebook.txt161 bytes torrent search
mg1186bbb.wmv524.64 Mb torrent search
Naughty Rich Girls 5 - Britney Beth.avi374.77 Mb torrent search
britneyfh18.wmv492.56 Mb torrent search
The Crib-clip2.avi111.26 Mb torrent search
Naughty Nanny 3 - Britney Beth.avi373.25 Mb torrent search
www.mastitorrents.com.nfo544 bytes torrent search
Screens.rar59.22 Mb torrent search
She's So Cute 3 - Britney Beth.avi328.7 Mb torrent search
herfreshmanyear_britney_beth_full_hi.wmv643.24 Mb torrent search
Beaver Hunt 10 - Bibi Jones (aka Britney Beth).wmv394.13 Mb torrent search
Earl Miller - Bibi Jones.avi552.59 Mb torrent search

Sample info:
Duration: 00:37:50.67, start: 4.000000, bitrate: 8147 kb/s
Stream #0.0: Audio: wmav2, 44100 Hz, 2 channels, s16, 128 kb/s
Stream #0.1: Video: vc1, yuv420p, 1280x720 [PAR 1:1 DAR 16:9], 0 kb/s, 30.30 fps, 29.97 tbr, 1k tbn, 29.97 tbc
screenshots
Britney Beth AKA Bibi torrent screenshot 757D5EE641F5C8F7A85DE599E3363B18D3C98BB9 Britney Beth AKA Bibi  torrent screenshot 757d5ee641f5c8f7a85de599e3363b18d3c98bb9 torrent Britney Beth AKA Bibi
Britney Beth AKA Bibi Jones Pack | D 3 V i L | (www.MastiTorrents.Com) images are auto generated please report any inapropriate images
 

related search cloud

 britney  beth  jones  bibi  clip  mastitorrents  crib  babysisters  naughty  nanny