Torrent Search | Torrent Meta Search | Widgets

Avatar Legenda Korry PLDUB

1.71 Gb
found 1 year ago
▲ seeders: 1 ▼ leechers:0
your vote:
real:
fake:
Direct Download
THANK YOU
download torrent
  Direct Downloadsponsored

Avatar Legenda Korry PLDUB torrent

Information about the torrent Avatar Legenda Korry PLDUB. Seeders, leechers and torrent status is updated everyday.

If you want to download the tv torrent Avatar Legenda Korry PLDUB you will need a torrent client.

Torrent Metasearch.

tracker
seeders
leechers
↓ torrent client compatible list

↑ hide torrent client compatible list

Help torrentproject.com to stay alive .
Add links of torrentproject.com in your favorite forum, blog, youtube, facebook, twitter etc.
reviews
140
torrent contents

Avatar - Legenda Korry - PLDUB torrent

Avatar - Legenda Korry - PLDUB
Avatar - Legenda Korry - S01E12 - Koniec gry.avi157.04 Mb torrent search
Avatar - Legenda Korry - S01E06 - A zwycięzcą jestavi.148.56 Mb torrent search
Avatar - Legenda Korry - S01E09 - Z przeszłości.avi147.53 Mb torrent search
Avatar - Legenda Korry - S01E08 - Spotkanie biegunów.avi147.13 Mb torrent search
Avatar - Legenda Korry - S01E10 - Wojna.avi146.91 Mb torrent search
Avatar - Legenda Korry - S01E01 - Witaj w mieście Republiki.avi146.25 Mb torrent search
Avatar - Legenda Korry - S01E11 - Trupy w szafach.avi145.72 Mb torrent search
Avatar - Legenda Korry - S01E02 - Liść na wietrze.avi144.44 Mb torrent search
Avatar - Legenda Korry - S01E05 - Duch współzawodnictwa.avi143.85 Mb torrent search
Avatar - Legenda Korry - S01E03 - Objawienie.avi143.48 Mb torrent search
Avatar - Legenda Korry - S01E04 - Głos w nocy.avi142 Mb torrent search
Avatar - Legenda Korry - S01E07 - Pokłosie.avi138.73 Mb torrent search

Sample info:
Duration: 00:24:23.82, start: 0.000000, bitrate: 899 kb/s
Stream #0.0: Video: mpeg4, yuv420p, 640x480 [PAR 1:1 DAR 4:3], 25 tbr, 25 tbn, 25 tbc
Stream #0.1: Audio: mp3, 44100 Hz, 2 channels, s16, 121 kb/s
screenshots
Avatar Legenda Korry PLDUB torrent screenshot 759C6C130C4B601796E11DE64EDEBB5A44BAB92F Avatar Legenda Korry PLDUB torrent screenshot 759c6c130c4b601796e11de64edebb5a44bab92f torrent Avatar Legenda Korry PLDUB
Avatar - Legenda Korry - PLDUB images are auto generated please report any inapropriate images
 

related search cloud

 avatar  korry  legenda  wietrze  szafach  trupy  duch  objawienie  osie  nocy

Torrent Anonymous Download