Torrent Search | Torrent Meta Search | Widgets

Cannibal Holocaust II Natura contro (1988) Eng Dubbed DVDRip XviD LKRG

       
700 Mb
found 4 years ago
▲ seeders: 2 ▼ leechers:2
your vote:
real:
fake:
Direct Download
THANK YOU
download torrent
  Direct Downloadsponsored

Cannibal Holocaust II Natura contro (1988) Eng Dubbed DVDRip XviD LKRG torrent

Information about the torrent Cannibal Holocaust II Natura contro (1988) Eng Dubbed DVDRip XviD LKRG. Seeders, leechers and torrent status is updated everyday.

If you want to download the dvdrip torrent Cannibal Holocaust II Natura contro (1988) Eng Dubbed DVDRip XviD LKRG you will need a torrent client.

Torrent Metasearch.

Torrent verified by torlock.com.

No trackers with seeders or leechers have been found, this doesn't mean that the torrent Cannibal Holocaust II Natura contro (1988) Eng Dubbed DVDRip XviD LKRG is dead
Help torrentproject.com to stay alive .
Add links of torrentproject.com in your favorite forum, blog, youtube, facebook, twitter etc.
reviews
140
torrent contents

Cannibal Holocaust II (Natura contro)(1988)(Eng-Dubbed) DVDRip Xvid LKRG torrent

Cannibal Holocaust II (Natura contro) 1988 (Eng-Dubbed) DVDRip Xvid LKRG
Cannibal Holocaust II (Natura contro) 1988 (Eng-Dubbed) DVDRip Xvid LKRG.avi700 Mb torrent search
Torrent Downloaded From Extra Torrent NFO.txt116 bytes torrent search

Sample info:
Duration: 01:25:51.32, start: 0.000000, bitrate: 1139 kb/s
Stream #0.0: Video: mpeg4, yuv420p, 608x336 [PAR 1:1 DAR 38:21], 25 tbr, 25 tbn, 25 tbc
Stream #0.1: Audio: mp3, 48000 Hz, 1 channels, s16, 86 kb/s
screenshots
Cannibal Holocaust II Natura torrent screenshot 75E2468D505515D8111950F8F38658924A00F307 Cannibal Holocaust II Natura  torrent screenshot 75e2468d505515d8111950f8f38658924a00f307 torrent Cannibal Holocaust II Natura
Cannibal Holocaust II (Natura contro)(1988)(Eng-Dubbed) DVDRip Xvid LKRG images are auto generated please report any inapropriate images
 

related search cloud

 xvid  lkrg  torrent  cannibal  dvdrip  holocaust  dubbed  natura  contro  extra