Torrent Search | Torrent Meta Search | Widgets

Candid HD Scooters Sunflowers and Nudists BRrip mkv no compression

20.22 Gb
found 2 years ago
▲ seeders: 2 ▼ leechers:4
your vote:
real:
fake:
Direct Download
THANK YOU
download torrent
  Direct Downloadsponsored

Candid HD Scooters Sunflowers and Nudists BRrip mkv no compression torrent

Information about the torrent Candid HD Scooters Sunflowers and Nudists BRrip mkv no compression. Seeders, leechers and torrent status is updated everyday.

If you want to download the hdrip torrent Candid HD Scooters Sunflowers and Nudists BRrip mkv no compression you will need a torrent client.

Torrent Metasearch.

tracker
seeders
leechers
Help torrentproject.com to stay alive .
Add links of torrentproject.com in your favorite forum, blog, youtube, facebook, twitter etc.
reviews
anonymous 29 Mar 2014, 11:03:36
Candid-HD_Scooters, Sunflowers and Nudists.BRrip.mkv - no compression torrent
anonymous 02 Mar 2014, 09:03:32
thKJHSDJFH
140
torrent contents

Candid-HD_Scooters, Sunflowers and Nudists.BRrip.mkv - no compression torrent

Candid-HD_Scooters, Sunflowers and Nudists.BRrip.mkv - no compression
CandidHD- Scooters, Sunflowers and Nudists HD.mkv20.22 Gb torrent search

Sample info:
Duration: 01:40:50.56, start: 0.000000, bitrate: N/A
Stream #0.0(eng): Video: h264 (High), yuv420p, 1440x1080 [PAR 4:3 DAR 16:9], 29.97 fps, 59.94 tbr, 1k tbn, 59.94 tbc (default)
Stream #0.1(eng): Audio: pcm_s16le, 48000 Hz, 2 channels, s16, 1536 kb/s (default)
title	: 2/0
screenshots
Candid HD Scooters Sunflowers torrent screenshot 78A9C65A70E39B5413B96625A9D3AC85E5003623 Candid HD Scooters Sunflowers  torrent screenshot 78a9c65a70e39b5413b96625a9d3ac85e5003623 torrent Candid HD Scooters Sunflowers
Candid-HD_Scooters, Sunflowers and Nudists.BRrip.mkv - no compression images are auto generated please report any inapropriate images
 

related search cloud

 sunflowers  nudists  scooters  candidhd  compreion  brrip  candid