Torrent Search | Torrent Meta Search | Widgets

Fuckedhard18 Abigalie aka Abby Abi Abigail Abigail Johnson 720p

       
1.22 Gb
found 2 years ago
▲ seeders: 8 ▼ leechers:4
your vote:
real:
fake:
Direct Download
THANK YOU
download torrent
  Direct Downloadsponsored

Fuckedhard18 Abigalie aka Abby Abi Abigail Abigail Johnson 720p torrent

Information about the torrent Fuckedhard18 Abigalie aka Abby Abi Abigail Abigail Johnson 720p. Seeders, leechers and torrent status is updated several times per day.

If you want to download the hdrip torrent Fuckedhard18 Abigalie aka Abby Abi Abigail Abigail Johnson 720p you will need a torrent client.

Torrent Metasearch.

Torrent verified by kat.ph.

tracker
seeders
leechers
↓ torrent client compatible list

↑ hide torrent client compatible list

Help torrentproject.com to stay alive .
Add links of torrentproject.com in your favorite forum, blog, youtube, facebook, twitter etc.
reviews
140
torrent contents

Fuckedhard18 - Abigalie aka Abby, Abi, Abigail, Abigail Johnson [720p].wmv torrent

Fuckedhard18 - Abigalie aka Abby, Abi, Abigail, Abigail Johnson [720p].wmv1.22 Gb torrent search

Sample info:
Duration: 00:55:15.89, start: 0.000000, bitrate: 3150 kb/s
Stream #0.0(eng): Audio: wmav2, 44100 Hz, 2 channels, s16, 96 kb/s
Stream #0.1(eng): Video: wmv3 (Main), yuv420p, 1280x720, 3049 kb/s, 30 tbr, 1k tbn, 1k tbc
screenshots
Fuckedhard18 Abigalie aka Abby torrent screenshot 78B6CAFDB80EC36FDD6204211109AD75FE8C60FA Fuckedhard18 Abigalie aka Abby  torrent screenshot 78b6cafdb80ec36fdd6204211109ad75fe8c60fa torrent Fuckedhard18 Abigalie aka Abby
Fuckedhard18 - Abigalie aka Abby, Abi, Abigail, Abigail Johnson [720p].wmv images are auto generated please report any inapropriate images
 

related search cloud

 abigail  johnson  abby  abigalie  fuckedhard

Torrent Anonymous Download