Torrent Search | Torrent Meta Search | Widgets

School models Paula custom Mummy Edit

70.8 Mb
found 3 years ago
▲ seeders: 4 ▼ leechers:2
your vote:
real:
fake:
Direct Download
THANK YOU
download torrent
  Direct Downloadsponsored

School models Paula custom Mummy Edit torrent

Information about the torrent School models Paula custom Mummy Edit. Seeders, leechers and torrent status is updated several times per day.

If you want to download the video torrent School models Paula custom Mummy Edit you will need a torrent client.

Torrent Metasearch.

tracker
seeders
leechers
↓ torrent client compatible list

↑ hide torrent client compatible list

Help torrentproject.com to stay alive .
Add links of torrentproject.com in your favorite forum, blog, youtube, facebook, twitter etc.
reviews
140
torrent contents

School models Paula custom (Mummy Edit).avi torrent

School models Paula custom (Mummy Edit).avi70.8 Mb torrent search

Sample info:
Duration: 00:08:58.96, start: 0.000000, bitrate: 1102 kb/s
Stream #0.0: Video: mpeg4, yuv420p, 720x480 [PAR 1:1 DAR 3:2], 25.00 tb(r)
Stream #0.1: Audio: mp3, 24000 Hz, stereo, 56 kb/s
 

related search cloud

 mummy  edit  custom  paula  models  school

Torrent Anonymous Download