Torrent Search | Torrent Meta Search | Widgets

Black Cheerleader Gang Bang #3

1.36 Gb
found 11 months ago
▲ seeders: 1 ▼ leechers:0
your vote:
real:
fake:
Direct Download
THANK YOU
download torrent
  Direct Downloadsponsored

Black Cheerleader Gang Bang #3 torrent

Information about the torrent Black Cheerleader Gang Bang #3. Seeders, leechers and torrent status is updated several times per day.

If you want to download the video torrent Black Cheerleader Gang Bang #3 you will need a torrent client.

Torrent Metasearch.

tracker
seeders
leechers
↓ torrent client compatible list

↑ hide torrent client compatible list

Help torrentproject.com to stay alive .
Add links of torrentproject.com in your favorite forum, blog, youtube, facebook, twitter etc.
reviews
140
torrent contents

Black Cheerleader Gang Bang #3 torrent

Black Cheerleader Gang Bang #3
Black Cheerleader Gang Bang 3 Scene 1 Ashley.avi370.96 Mb torrent search
Black Cheerleader Gang Bang 3 Scene 2 Kafe.avi314.68 Mb torrent search
Black Cheerleader Gang Bang 3 Scene 3 Sam.avi629.37 Mb torrent search
Black Cheerleader Gang Bang 3 Intro Ashley.avi4.74 Mb torrent search
Black Cheerleader Gang Bang 3 Outro Kafe & Lacey.avi77.08 Mb torrent search

Sample info:
Duration: 00:45:11.27, start: 0.000000, bitrate: 1947 kb/s
Stream #0:0: Video: mpeg4 (Simple Profile) (XVID / 0x44495658), yuv420p, 544x416 [SAR 1:1 DAR 17:13], 29.97 tbr, 29.97 tbn, 29.98 tbc
Stream #0:1: Audio: mp3 (U[0][0][0] / 0x0055), 32000 Hz, stereo, s16, 96 kb/s
screenshots
Black Cheerleader Gang Bang torrent screenshot 798BA4233F9AEB4744B9CD59AFDF72EBECCC79BB Black Cheerleader Gang Bang  torrent screenshot 798ba4233f9aeb4744b9cd59afdf72ebeccc79bb torrent Black Cheerleader Gang Bang
Black Cheerleader Gang Bang #3 images are auto generated please report any inapropriate images
 

related search cloud

 bang  gang  cheerleader  black  scene  ashley  kafe  lacey  intro  outro