Torrent Search | Torrent Meta Search | Widgets

Sons Of Anarchy S1 3 Complete

       
14.9 Gb
found 3 years ago
▲ seeders: 2 ▼ leechers:1
your vote:
real:
fake:
Direct Download
THANK YOU
download torrent
  Direct Downloadsponsored

Sons Of Anarchy S1 3 Complete torrent

Information about the torrent Sons Of Anarchy S1 3 Complete. Seeders, leechers and torrent status is updated several times per day.

If you want to download the tv torrent Sons Of Anarchy S1 3 Complete you will need a torrent client.

Torrent Metasearch.

Torrent verified by kat.ph.

tracker
seeders
leechers
↓ torrent client compatible list

↑ hide torrent client compatible list

Help torrentproject.com to stay alive .
Add links of torrentproject.com in your favorite forum, blog, youtube, facebook, twitter etc.
reviews
140
torrent contents

Sons Of Anarchy S1-3 Complete torrent

Sons Of Anarchy S1-3 Complete
 Sons Of Anarchy S1
Sons.of.Anarchy.S01E01.Pilot.NOMAD13666.avi549.99 Mb torrent search
Sons.of.Anarchy.S01E13.The.Revelator.NOMAD13666.avi549.77 Mb torrent search
Sons.of.Anarchy.S01E12.The.Sleep.Of.Babies.NOMAD13666.avi350.94 Mb torrent search
Sons.of.Anarchy.S01E07.Old.Bones.NOMAD13666.avi350.82 Mb torrent search
Sons.of.Anarchy.S01E06.AK-51.NOMAD13666.avi350.82 Mb torrent search
Sons.of.Anarchy.S01E04.Patch.Ove.NOMAD13666r.avi350.76 Mb torrent search
Sons.of.Anarchy.S01E09.Hell.Followed.NOMAD13666.avi349.99 Mb torrent search
Sons.of.Anarchy.S01E08.The.Pull.NOMAD13666.avi349.98 Mb torrent search
Sons.of.Anarchy.S01E10.Better.Half.NOMAD13666.avi349.95 Mb torrent search
Sons.of.Anarchy.S01E11.Capybara.NOMAD13666.avi349.95 Mb torrent search
Sons.of.Anarchy.S01E02.Seeds.NOMAD13666.avi349.87 Mb torrent search
Sons.of.Anarchy.S01E05.Giving.Back.NOMAD13666.avi349.52 Mb torrent search
Sons.of.Anarchy.S01E03.Fun.Town.NOMAD13666.avi349.5 Mb torrent search

Sons Of Anarchy S1-3 Complete
 Sons Of Anarchy S2
SONS.OF.ANARCHY.S02E10.Balm.HDTV.NOMAD13666.avi551.85 Mb torrent search
SONS.OF.ANARCHY.S02E13.Na.Triobloidi.HDTV.NOMAD13666.avi550.31 Mb torrent search
SONS.OF.ANARCHY.S02E01.Albification.HDTV.NOMAD13666.avi550 Mb torrent search
SONS.OF.ANARCHY.S02E08.Potlatch.HDTV.NOMAD13666.avi353.01 Mb torrent search
SONS.OF.ANARCHY.S02E03.Fix.HDTV.NOMAD13666.avi352.04 Mb torrent search
SONS.OF.ANARCHY.S02E09.Fa.Guan.HDTV.NOMAD13666.avi351.21 Mb torrent search
SONS.OF.ANARCHY.S02E04.Eureka.HDTV.NOMAD13666.avi351.18 Mb torrent search
SONS.OF.ANARCHY.S02E07.Gilead.HDTV.NOMAD13666.avi350.43 Mb torrent search
SONS.OF.ANARCHY.S02E12.The.Culling.HDTV.NOMAD13666.avi3 bytes torrent search

Sample info:
Duration: 00:55:14.44, start: 0.000000, bitrate: 1396 kb/s
Stream #0.0: Video: mpeg4, yuv420p, 624x352 [PAR 1:1 DAR 39:22], 23.98 tb(r)
Stream #0.1: Audio: mp3, 48000 Hz, stereo, 32 kb/s
you may be interested in these torrents seeders leechers size found
Son of Batman (2014) BRRip XviD SaM ETRG     1862 357 704.5 Mb 3 months ago

Son of Batman [2014] BRRip XviD-SaM[ETRG].avi SaMple.avi ETRG.mp4


Son of God (2014) 1707 133 928.4 Mb 2 months ago

Son.of.God.2014.720p.BluRay.x264.YIFY.mp4 WWW.YIFY-TORRENTS.COM.jpg


Game Of Thrones Complete Season 1 2 3 x264 + Extras Multisubs 953 717 11.44 Gb 4 months ago

Game Of Thrones S02E10 Valar Morghulis.mkv Game Of Thr


Son Of God (2014) WEBRip x264 k3ly     908 25 959.97 Mb 4 months ago

Son Of God 2014 WEBRip x264 - k3ly.mkv Son Of God 2014 WEBRip x264 - k3ly.mkv.torrent


Son of God (2014) 1080p 870 108 2.05 Gb 2 months ago

Son.of.God.2014.1080p.BluRay.x264.YIFY.mp4 WWW.YIFY-TORRENTS.COM.jpg


Sons Of Anarchy S01     593 219 6.65 Gb 8 months ago

Sons.of.Anarchy.S01E13.The.Revelator.mp4 Sons.of.Anarchy.S01E01.Pilot.mp4 Sons.of.Anarchy.S


Cpasbien pe son of god (2014) bdrip ac3 XviD 502 25 1.37 Gb 2 months ago

[www.Cpasbien.pe] son of god 2014 bdrip ac3.xvid.avi


Sons Of Anarchy S02 438 192 6.59 Gb 8 months ago

Sons.of.Anarchy.S02E13.Na.Triobloidi.mp4 Sons.of.Anarchy.S02E10.Balm.mp4 Sons.of.Anarchy.S0


Sons Of Anarchy S03     424 196 6.72 Gb 8 months ago

Sons.of.Anarchy.S03E13.NS.mp4 Sons.of.Anarchy.S03E08.Lochan.mp4 Sons.of.Anarchy.S03E01.So.m


Californication Season 7 COMPLETE 720p HDTV x264 MKV AC3 5 1 Ehhhh     403 112 3.27 Gb 13 days ago

Californication Folder Icon.ico Californication Season 7 -


 

related search cloud

 anarchy  sons  nomad  hdtv  complete  triobloidi  balm  town  back  guan