Torrent Search | Torrent Meta Search | Widgets

Tiffany Star Push It In My Ass LetsTryAnal

690.36 Mb
found 2 years ago
▲ seeders: 3 ▼ leechers:5
your vote:
real:
fake:
Direct Download
THANK YOU
download torrent
  Direct Downloadsponsored

Tiffany Star Push It In My Ass LetsTryAnal torrent

Information about the torrent Tiffany Star Push It In My Ass LetsTryAnal. Seeders, leechers and torrent status is updated several times per day.

If you want to download the video torrent Tiffany Star Push It In My Ass LetsTryAnal you will need a torrent client.

Torrent Metasearch.

tracker
seeders
leechers
↓ torrent client compatible list

↑ hide torrent client compatible list

Help torrentproject.com to stay alive .
Add links of torrentproject.com in your favorite forum, blog, youtube, facebook, twitter etc.
reviews
140
torrent contents

Tiffany.Star.Push.It.In.My.Ass.LetsTryAnal.2012_iyutero.com.wmv torrent

Tiffany.Star.Push.It.In.My.Ass.LetsTryAnal.2012_iyutero.com.wmv690.36 Mb torrent search

Sample info:
Duration: 00:34:48.57, start: 0.000000, bitrate: 2772 kb/s
Stream #0.0: Video: wmv2, yuv420p, 854x480, 29.97 tbr, 1k tbn, 1k tbc
Stream #0.1: Audio: wmav2, 48000 Hz, 2 channels, s16, 128 kb/s
screenshots
Tiffany Star Push It torrent screenshot 7A5D46372E1B0C29B6A9E1E9D170F04C26310984 Tiffany Star Push It  torrent screenshot 7a5d46372e1b0c29b6a9e1e9d170f04c26310984 torrent Tiffany Star Push It
Tiffany.Star.Push.It.In.My.Ass.LetsTryAnal.2012_iyutero.com.wmv images are auto generated please report any inapropriate images
 

related search cloud

 iyutero  letstryanal  push  star  tiffany