Torrent Search | Torrent Meta Search | Widgets

Alex Velea Cand noaptea vine Official video

       
78.04 Mb
found 2 years ago
▲ seeders: 2 ▼ leechers:1
your vote:
real:
fake:
Direct Download
THANK YOU
download torrent
  Direct Downloadsponsored

Alex Velea Cand noaptea vine Official video torrent

Information about the torrent Alex Velea Cand noaptea vine Official video. Seeders, leechers and torrent status is updated everyday.

If you want to download the video torrent Alex Velea Cand noaptea vine Official video you will need a torrent client.

Torrent Metasearch.

Torrent verified by h33t.com.

tracker
seeders
leechers
↓ torrent client compatible list

↑ hide torrent client compatible list

Help torrentproject.com to stay alive .
Add links of torrentproject.com in your favorite forum, blog, youtube, facebook, twitter etc.
reviews
140
torrent contents

Alex Velea - Cand noaptea vine [Official video].avi torrent

Alex Velea - Cand noaptea vine [Official video].avi78.04 Mb torrent search

Sample info:
Duration: 00:03:42.28, start: 0.000000, bitrate: 2945 kb/s
Stream #0.0: Video: mpeg4, yuv420p, 640x480 [PAR 1:1 DAR 4:3], 23.98 fps, 23.98 tbr, 23.98 tbn, 2997 tbc
Stream #0.1: Audio: mp3, 48000 Hz, 2 channels, s16, 320 kb/s
screenshots
Alex Velea Cand noaptea torrent screenshot 7C1F1E56EA6E5A43909014979CB0541EDF96EDB0 Alex Velea Cand noaptea  torrent screenshot 7c1f1e56ea6e5a43909014979cb0541edf96edb0 torrent Alex Velea Cand noaptea
Alex Velea - Cand noaptea vine [Official video].avi images are auto generated please report any inapropriate images
 

related search cloud

 official  video  vine  noaptea  velea  cand  alex