Torrent Search | Torrent Meta Search | Widgets

Showtime Soul Food S4

       
10.83 Gb
found 3 years ago
▲ seeders: 0 ▼ leechers:3
your vote:
real:
fake:
Direct Download
THANK YOU
download torrent
  Direct Downloadsponsored

Showtime Soul Food S4 torrent

Information about the torrent Showtime Soul Food S4. Seeders, leechers and torrent status is updated everyday.

If you want to download the video torrent Showtime Soul Food S4 you will need a torrent client.

Torrent Metasearch.

Torrent verified by kat.ph.

tracker
seeders
leechers
↓ torrent client compatible list

↑ hide torrent client compatible list

Help torrentproject.com to stay alive .
Add links of torrentproject.com in your favorite forum, blog, youtube, facebook, twitter etc.
reviews
140
torrent contents

Showtime Soul Food S4 torrent

Showtime Soul Food S4
311---All Together Alone.avi1020.93 Mb torrent search
312---Life 101.avi960.11 Mb torrent search
313--The New Math.avi993.51 Mb torrent search
314--Truths Consequences.avi930.31 Mb torrent search
315--Shades of Grey.avi904.8 Mb torrent search
316--My Brothers Keeper.avi860.94 Mb torrent search
317--Attracting Opposites.avi1.3 Gb torrent search
318--Sacrifice Fly.avi1.33 Gb torrent search
319--Nobobys Child.avi1.31 Gb torrent search
320-Falling from Grace.avi1.36 Gb torrent search

Sample info:
Duration: 00:50:11.50, start: 0.000000, bitrate: 3874 kb/s
Stream #0.0: Video: msmpeg4v2, yuv420p, 720x480, 29.97 tb(r)
Stream #0.1: Audio: pcm_s16le, 44100 Hz, stereo, 1411 kb/s
screenshots
Showtime Soul Food S4 torrent screenshot 7E16C6BC633F9BA3E763D70F131D6FD8AE6897C1 Showtime Soul Food S4 torrent screenshot 7e16c6bc633f9ba3e763d70f131d6fd8ae6897c1 torrent Showtime Soul Food S4
Showtime Soul Food S4 images are auto generated please report any inapropriate images
 

related search cloud

 opposites  attracting  keeper  brothers  sacrifice  nobobys  grace  falling  child  grey

Torrent Anonymous Download