Torrent Search | Torrent Meta Search | Widgets

Giovani Carini e Disoccupati

       
699.94 Mb
found 4 years ago
▲ seeders: 5 ▼ leechers:0
your vote:
real:
fake:
Direct Download
THANK YOU
download torrent
  Direct Downloadsponsored

Giovani Carini e Disoccupati torrent

Information about the torrent Giovani Carini e Disoccupati. Seeders, leechers and torrent status is updated everyday.

If you want to download the video torrent Giovani Carini e Disoccupati you will need a torrent client.

Torrent Metasearch.

.

tracker
seeders
leechers
↓ torrent client compatible list

↑ hide torrent client compatible list

Help torrentproject.com to stay alive .
Add links of torrentproject.com in your favorite forum, blog, youtube, facebook, twitter etc.
reviews
140
torrent contents

Giovani, Carini e Disoccupati.avi torrent

Giovani, Carini e Disoccupati.avi699.94 Mb torrent search

Sample info:
Duration: 01:34:16.04, start: 0.000000, bitrate: 1038 kb/s
Stream #0.0: Video: mpeg4 (Advanced Simple Profile), yuv420p, 608x336 [PAR 1:1 DAR 38:21], 25 tbr, 25 tbn, 25 tbc
Stream #0.1: Audio: mp3, 48000 Hz, stereo, s16, 127 kb/s
screenshots
Giovani Carini e Disoccupati torrent screenshot 7E1F9FC3B95E73500C3D69B081C4B6A81C7787B6 Giovani Carini e Disoccupati torrent screenshot 7e1f9fc3b95e73500c3d69b081c4b6a81c7787b6 torrent Giovani Carini e Disoccupati
Giovani, Carini e Disoccupati.avi images are auto generated please report any inapropriate images
 

related search cloud

 disoccupati  carini  giovani