Torrent Search | Torrent Meta Search | Widgets

Hunter x Hunter

9.57 Gb
found 1 year ago
▲ seeders: 1 ▼ leechers:5
your vote:
real:
fake:
Direct Download
THANK YOU
download torrent
  Direct Downloadsponsored

Hunter x Hunter torrent

Information about the torrent Hunter x Hunter. Seeders, leechers and torrent status is updated everyday.

If you want to download the video torrent Hunter x Hunter you will need a torrent client.

Torrent Metasearch.

tracker
seeders
leechers
↓ torrent client compatible list

↑ hide torrent client compatible list

Help torrentproject.com to stay alive .
Add links of torrentproject.com in your favorite forum, blog, youtube, facebook, twitter etc.
reviews
140
torrent contents

Hunter x Hunter torrent

Hunter x Hunter
 1ª-Anime 1999
Hunter x Hunter - 62.avi163.1 Mb torrent search
Hunter x Hunter - 35.avi149.52 Mb torrent search
Hunter x Hunter - 36.avi148.81 Mb torrent search
Hunter x Hunter - 32.avi148.56 Mb torrent search
Hunter x Hunter - 29.avi148.42 Mb torrent search
Hunter x Hunter - 31.avi148.41 Mb torrent search
Hunter x Hunter - 28.avi148.39 Mb torrent search
Hunter x Hunter - 22.avi148.26 Mb torrent search
Hunter x Hunter - 50.avi148.22 Mb torrent search
Hunter x Hunter - 27.avi148.21 Mb torrent search
Hunter x Hunter - 49.avi148.18 Mb torrent search
Hunter x Hunter - 37.avi148.18 Mb torrent search
Hunter x Hunter - 43.avi148.16 Mb torrent search
Hunter x Hunter - 42.avi148.15 Mb torrent search
Hunter x Hunter - 55.avi148.14 Mb torrent search
Hunter x Hunter - 15.avi148.09 Mb torrent search
Hunter x Hunter - 39.avi148.06 Mb torrent search
Hunter x Hunter - 46.avi148.06 Mb torrent search
Hunter x Hunter - 25.avi148.05 Mb torrent search
Hunter x Hunter - 45.avi148.03 Mb torrent search
Hunter x Hunter - 33.avi148.03 Mb torrent search
Hunter x Hunter - 53.avi148 Mb torrent search
Hunter x Hunter - 24.avi147.98 Mb torrent search
Hunter x Hunter - 41.avi147.98 Mb torrent search
Hunter x Hunter - 44.avi147.95 Mb torrent search
Hunter x Hunter - 56.avi147.93 Mb torrent search
Hunter x Hunter - 58.avi147.93 Mb torrent search
Hunter x Hunter - 14.avi147.92 Mb torrent search
Hunter x Hunter - 18.avi147.86 Mb torrent search
Hunter x Hunter - 21.avi147.86 Mb torrent search
Hunter x Hunter - 20.avi147.81 Mb torrent search
Hunter x Hunter - 61.avi147.78 Mb torrent search
Hunter x Hunter - 16.avi147.77 Mb torrent search
Hunter x Hunter - 26.avi147.6 Mb torrent search
Hunter x Hunter - 59.avi147.56 Mb torrent search
Hunter x Hunter - 19.avi torrent search

Sample info:
Duration: 00:25:11.44, start: 0.000000, bitrate: 905 kb/s
Stream #0.0: Video: mpeg4 (Simple Profile), yuv420p, 640x480 [PAR 1:1 DAR 4:3], 25 tbr, 25 tbn, 25 tbc
Stream #0.1: Audio: mp3, 44100 Hz, stereo, s16, 96 kb/s
screenshots
Hunter x Hunter torrent screenshot 7E20370A1C84EC741E7C23D77582321496947069 Hunter x Hunter torrent screenshot 7e20370a1c84ec741e7c23d77582321496947069 torrent Hunter x Hunter
Hunter x Hunter images are auto generated please report any inapropriate images
 

related search cloud

 hunter  anime

Torrent Anonymous Download