Torrent Search | Torrent Meta Search | Widgets

Woodman Casting X Suzanna Wienold

659.98 Mb
found 3 years ago
▲ seeders: 2 ▼ leechers:1
your vote:
real:
fake:
Direct Download
THANK YOU
download torrent
  Direct Downloadsponsored

Woodman Casting X Suzanna Wienold torrent

Information about the torrent Woodman Casting X Suzanna Wienold. Seeders, leechers and torrent status is updated everyday.

If you want to download the video torrent Woodman Casting X Suzanna Wienold you will need a torrent client.

Torrent Metasearch.

tracker
seeders
leechers
↓ torrent client compatible list

↑ hide torrent client compatible list

Help torrentproject.com to stay alive .
Add links of torrentproject.com in your favorite forum, blog, youtube, facebook, twitter etc.
reviews
140
torrent contents

Woodman Casting X - Suzanna Wienold torrent

Woodman Casting X - Suzanna Wienold
Woodman Casting X - Suzanna Wienold.wmv659.24 Mb torrent search
screen5.jpg283.75 Kb torrent search
screen4.jpg158.92 Kb torrent search
screen3.jpg110.61 Kb torrent search
screen1.jpg106.36 Kb torrent search
screen2.jpg97.67 Kb torrent search

Sample info:
Duration: 00:48:48.22, start: 3.100000, bitrate: 1888 kb/s
Stream #0.0: Video: wmv2, yuv420p, 768x576, 25.00 tb(r)
Stream #0.1: Audio: wmav1, 48000 Hz, stereo, 128 kb/s
screenshots
Woodman Casting X Suzanna torrent screenshot 7E440F99855BCC7C2027C545B6516125BB4E3D75 Woodman Casting X Suzanna  torrent screenshot 7e440f99855bcc7c2027c545b6516125bb4e3d75 torrent Woodman Casting X Suzanna
Woodman Casting X - Suzanna Wienold images are auto generated please report any inapropriate images
 

related search cloud

 screen  wienold  suzanna  casting  woodman

Torrent Anonymous Download