Torrent Search | Torrent Meta Search | Widgets

DivX ITA Bambola

699.8 Mb
found 4 years ago
▲ seeders: 1 ▼ leechers:1
your vote:
real:
fake:
Direct Download
THANK YOU
download torrent
  Direct Downloadsponsored

DivX ITA Bambola torrent

Information about the torrent DivX ITA Bambola. Seeders, leechers and torrent status is updated everyday.

If you want to download the video torrent DivX ITA Bambola you will need a torrent client.

Torrent Metasearch.

tracker
seeders
leechers
↓ torrent client compatible list

↑ hide torrent client compatible list

Help torrentproject.com to stay alive .
Add links of torrentproject.com in your favorite forum, blog, youtube, facebook, twitter etc.
reviews
140
torrent contents

[DivX-ITA] Bambola.avi torrent

[DivX-ITA] Bambola.avi699.8 Mb torrent search

Sample info:
Duration: 01:31:36.76, start: 0.000000, bitrate: 1067 kb/s
Stream #0.0: Video: mpeg4, yuv420p, 512x288 [PAR 1:1 DAR 16:9], 25.00 tb(r)
Stream #0.1: Audio: mp3, 44100 Hz, stereo, 128 kb/s
you may be interested in these torrents seeders leechers size found
The Angriest Man in Brooklyn (2014)     1381 28 841.1 Mb 2 months ago

The Angriest Man in Brooklyn (2014)-divx.avi Torrent Downloaded From ExtraTorrent.cc-2.txt


18禁アニメ あなたの知らない看護婦 ~性的病棟24時~ 第二話 「私を永遠に汚して 」 704x396 DivX 1115 587 267.95 Mb 4 years ago

(18禁アニメ) あなたの知らない看護婦 ~性的病棟24時


Disney The Little Mermaid (1989) DVD DivX     705 22 679.82 Mb 4 years ago

Disney - The Little Mermaid (1989) DVD-DivX.avi


Minuscule Valley of the Lost Ants (2014) 689 23 888.75 Mb 2 months ago

Minuscule Valley of the Lost Ants (2014)-divx.avi Torrent Downloaded From ExtraTorrent


The Mummy Resurrected (2014) DVDRip     647 40 806.03 Mb 3 months ago

The.Mummy.Resurrected.2014.DVDRip-divx.avi Torrent Downloaded From ExtraTorrent.cc.txt


Oblivion DivX TS Feel Free (2013) 624 3 710.2 Mb 5 months ago

Oblivion DivX TS Feel-Free 2013.avi


Gravity DivX AC3 (2013) PPVRip IFLIX Core 621 6 706.85 Mb 8 months ago

Gravity DivX AC3 (2013) PPVRip IFLIX-Core.avi


Olympus Has Fallen DivX AC3 (2013) PPVRip IFLIX Core 619 5 733.71 Mb 8 months ago

Olympus Has Fallen DivX AC3 (2013) PPVRip IFLIX-Core.avi


Runner Runner DivX AC3 (2013) PPVRip IFLIX Core 619 5 734.23 Mb 8 months ago

Runner Runner DivX AC3 (2013) PPVRip IFLIX-Core.avi


Man of Steel DivX AC3 (2013) PPVRip IFLIX Core 618 3 719.42 Mb 8 months ago

Man of Steel DivX AC3 (2013) PPVRip IFLIX-Core.avi


 

related search cloud

 bambola  divx