Torrent Search | Torrent Meta Search | Widgets

Jules Jordan Mandingo Massacre 4

1.36 Gb
found 1 year ago
▲ seeders: 1 ▼ leechers:2
your vote:
real:
fake:
Direct Download
THANK YOU
download torrent
  Direct Downloadsponsored

Jules Jordan Mandingo Massacre 4 torrent

Information about the torrent Jules Jordan Mandingo Massacre 4. Seeders, leechers and torrent status is updated several times per day.

If you want to download the video torrent Jules Jordan Mandingo Massacre 4 you will need a torrent client.

Torrent Metasearch.

tracker
seeders
leechers
↓ torrent client compatible list

↑ hide torrent client compatible list

Help torrentproject.com to stay alive .
Add links of torrentproject.com in your favorite forum, blog, youtube, facebook, twitter etc.
reviews
140
torrent contents

Jules Jordan - Mandingo Massacre 4 torrent

Jules Jordan - Mandingo Massacre 4
vbt-mamas4a.avi696.85 Mb torrent search
vbt-mamas4b.avi697.18 Mb torrent search

Sample info:
Duration: 01:30:11.00, start: 0.000000, bitrate: 1080 kb/s
Stream #0.0: Video: mpeg4 (Advanced Simple Profile), yuv420p, 576x320 [PAR 1:1 DAR 9:5], 29.97 tbr, 29.97 tbn, 29.98 tbc
Stream #0.1: Audio: mp3, 48000 Hz, stereo, s16, 133 kb/s
screenshots
Jules Jordan Mandingo Massacre torrent screenshot 7EF67F1F6147BFD9C8234AFB5BA2B7AD35D5A439 Jules Jordan Mandingo Massacre  torrent screenshot 7ef67f1f6147bfd9c8234afb5ba2b7ad35d5a439 torrent Jules Jordan Mandingo Massacre
Jules Jordan - Mandingo Massacre 4 images are auto generated please report any inapropriate images
 

related search cloud

 mamas  maacre  mandingo  jordan  jules

Torrent Anonymous Download