Torrent Search | Torrent Meta Search | Widgets

Sexy Pattycake Videos

19.57 Gb
found 2 years ago
▲ seeders: 7 ▼ leechers:13
your vote:
real:
fake:
Direct Download
THANK YOU
download torrent
  Direct Downloadsponsored

Sexy Pattycake Videos torrent

Information about the torrent Sexy Pattycake Videos. Seeders, leechers and torrent status is updated several times per day.

If you want to download the video torrent Sexy Pattycake Videos you will need a torrent client.

Torrent Metasearch.

tracker
seeders
leechers
↓ torrent client compatible list

↑ hide torrent client compatible list

Help torrentproject.com to stay alive .
Add links of torrentproject.com in your favorite forum, blog, youtube, facebook, twitter etc.
reviews
140
torrent contents

Sexy Pattycake Videos torrent

Sexy Pattycake Videos
120130.mp4250.19 Mb torrent search
111126.mp4215.03 Mb torrent search
111115.mp4212.86 Mb torrent search
081014big.mpg209.59 Mb torrent search
090731big.mpg205.27 Mb torrent search
111211.mp4184.86 Mb torrent search
120125.mp4168.72 Mb torrent search
090714big.mpg167.84 Mb torrent search
111231.mp4164.55 Mb torrent search
101102.mp4156.06 Mb torrent search
090816big.mpg153.57 Mb torrent search
081109big.mpg153.53 Mb torrent search
101120.mp4152.58 Mb torrent search
081001big.mpg150.52 Mb torrent search
100807.mp4143.53 Mb torrent search
090208big.mpg140.32 Mb torrent search
100628big.mpg140.28 Mb torrent search
090605bbig.mpg137.69 Mb torrent search
111206.mp4134.72 Mb torrent search
090722big.mpg132.53 Mb torrent search
120105.mp4131.58 Mb torrent search
090331big.mpg128.14 Mb torrent search
091222big.mpg127.89 Mb torrent search
090706big.mpg124.95 Mb torrent search
110122.mpg123.89 Mb torrent search
100124big.mpg122.76 Mb torrent search
100829.mp4122.02 Mb torrent search
120115.mp4121.04 Mb torrent search
090103big.mpg118.4 Mb torrent search
090318big.mpg117.41 Mb torrent search
110621.mp4117.18 Mb torrent search
100104big.mpg114.68 Mb torrent search
111010.mp4114.4 Mb torrent search
100725big.mpg114.33 Mb torrent search
110304.mp4111.51 Mb torrent search
110118.mp4111.09 Mb torrent search
090307big.mpg110.28 Mb torrent search
081219big.mpg110.02 Mb torrent search
091123big.mpg109.83 Mb torrent search
090614big.mpg109.55 Mb torrent search
110414.mp4108.96 Mb torrent search
110612.mp4108.87 Mb torrent search
080822big.mpg108.19 Mb torrent search
100825.mp4108.07 Mb torrent search
090128big.mpg107.26 Mb torrent search
101216.mp4106.96 Mb torrent search
100815big.mpg106.44 Mb torrent search
090605big.mpg105.43 Mb torrent search
091006big.mpg104.21 Mb torrent search
100329big.mpg103.86 Mb torrent search
071030big.mpg103.39 Mb torrent search

Sample info:
Duration: 00:07:33.18, start: 0.000000, bitrate: 4631 kb/s
Stream #0.0(eng): Video: h264, yuv420p, 640x352 [PAR 1:1 DAR 20:11], 4503 kb/s, 30 fps, 30 tbr, 30k tbn, 60 tbc
creation_time	: 2012-01-30 19:48:32
Stream #0.1(eng): Audio: aac, 48000 Hz, stereo, s16, 125 kb/s
creation_time	: 2012-01-30 19:48:32
screenshots
Sexy Pattycake Videos torrent screenshot 7F393450E87228D7FFDB7339EFB53BBEB4E35CC7 Sexy Pattycake Videos torrent screenshot 7f393450e87228d7ffdb7339efb53bbeb4e35cc7 torrent Sexy Pattycake Videos
Sexy Pattycake Videos images are auto generated please report any inapropriate images
 

related search cloud

 bbig  videos  pattycake  sexy

Torrent Anonymous Download