Torrent Search | Torrent Meta Search | Widgets

Pornstar Punishment Shawna Lenee

       
396.9 Mb
found 4 years ago
▲ seeders: 4 ▼ leechers:2
your vote:
real:
fake:
Direct Download
THANK YOU
download torrent
  Direct Downloadsponsored

Pornstar Punishment Shawna Lenee torrent

Information about the torrent Pornstar Punishment Shawna Lenee. Seeders, leechers and torrent status is updated several times per day.

If you want to download the video torrent Pornstar Punishment Shawna Lenee you will need a torrent client.

Torrent Metasearch.

Torrent verified by kat.ph.

tracker
seeders
leechers
↓ torrent client compatible list

↑ hide torrent client compatible list

Help torrentproject.com to stay alive .
Add links of torrentproject.com in your favorite forum, blog, youtube, facebook, twitter etc.
reviews
140
torrent contents

Pornstar.Punishment.-.Shawna.Lenee torrent

Pornstar.Punishment.-.Shawna.Lenee
screens.jpg355.11 Kb torrent search
psp_shawna_lenee-sd169.wmv396.5 Mb torrent search
poster.jpg51.48 Kb torrent search
Pornstar.Punishment.-.Shawna.Lenee.nfo358 bytes torrent search

Sample info:
Duration: 00:23:24.01, start: 0.000000, bitrate: 2368 kb/s
Stream #0.0(eng): Audio: wmav2, 44100 Hz, 2 channels, s16, 64 kb/s
Stream #0.1(eng): Video: wmv3 (Main), yuv420p, 768x432, 2300 kb/s, 29.97 tbr, 1k tbn, 1k tbc
screenshots
Pornstar Punishment Shawna Lenee torrent screenshot 7FF8661FE614F29C639BD018849ACE5D3F8C9983 Pornstar Punishment Shawna Lenee torrent screenshot 7ff8661fe614f29c639bd018849ace5d3f8c9983 torrent Pornstar Punishment Shawna Lenee
Pornstar.Punishment.-.Shawna.Lenee images are auto generated please report any inapropriate images
 

related search cloud

 shawna  lenee  punishment  pornstar  poster  screens