Torrent Search | Torrent Meta Search | Widgets

Mamma Ho Perso L Aereo

       
1.37 Gb
found 3 years ago
▲ seeders: 11 ▼ leechers:1
your vote:
real:
fake:
Direct Download
THANK YOU
download torrent
  Direct Downloadsponsored

Mamma Ho Perso L Aereo torrent

Information about the torrent Mamma Ho Perso L Aereo. A torrent file stores metadata that can be used from a BitTorrent client.

If you want to download the video torrent Mamma Ho Perso L Aereo you will need a torrent client.

Torrent Metasearch.

Torrent verified by torlock.com.

tracker
seeders
leechers
↓ torrent client compatible list

↑ hide torrent client compatible list

Help torrentproject.com to stay alive .
Add links of torrentproject.com in your favorite forum, blog, youtube, facebook, twitter etc.
reviews
140
torrent contents

Mamma Ho Perso L Aereo torrent

Mamma Ho Perso L Aereo
Xvid.ITA.Mamma.ho.perso.l'aereo.AC3.1of2.Actarus1981.avi700.71 Mb torrent search
Xvid.ITA.Mamma.ho.perso.l'aereo.AC3.2of2.Actarus1981.avi697.14 Mb torrent search

Sample info:
Duration: 00:45:34.16, start: 0.000000, bitrate: 2149 kb/s
Stream #0.0: Video: mpeg4 (Simple Profile), yuv420p, 640x352 [PAR 1:1 DAR 20:11], 25 tbr, 25 tbn, 25 tbc
Stream #0.1: Audio: ac3, 48000 Hz, stereo, s16, 192 kb/s
screenshots
Mamma Ho Perso L torrent screenshot 800C1B0AB3E32E80BC8D508DCA3CD82780B67646 Mamma Ho Perso L  torrent screenshot 800c1b0ab3e32e80bc8d508dca3cd82780b67646 torrent Mamma Ho Perso L
Mamma Ho Perso L Aereo images are auto generated please report any inapropriate images
 

related search cloud

 mamma  aereo  perso  actarus  xvid